<?xml version="1.0" standalone="no"?>
<!DOCTYPE svg PUBLIC "-//W3C//DTD SVG 1.1//EN" "http://www.w3.org/Graphics/SVG/1.1/DTD/svg11.dtd" >
<svg xmlns="http://www.w3.org/2000/svg">
<metadata>Generated by IcoMoon</metadata>
<defs>
<font id="icon-dukamarket" horiz-adv-x="1024">
<font-face units-per-em="1024" ascent="960" descent="-64" />
<missing-glyph horiz-adv-x="1024" />
<glyph unicode="&#x20;" horiz-adv-x="512" d="" />
<glyph unicode="&#xe900;" glyph-name="error_outline" d="M512 84.667q140 0 241 101t101 241-101 241-241 101-241-101-101-241 101-241 241-101zM512 852.667q176 0 301-125t125-301-125-301-301-125-301 125-125 301 125 301 301 125zM470 640.667h84v-256h-84v256zM470 298.667h84v-86h-84v86z" />
<glyph unicode="&#xe901;" glyph-name="pause_circle_outline" d="M554 256.667v340h86v-340h-86zM512 84.667q140 0 241 101t101 241-101 241-241 101-241-101-101-241 101-241 241-101zM512 852.667q176 0 301-125t125-301-125-301-301-125-301 125-125 301 125 301 301 125zM384 256.667v340h86v-340h-86z" />
<glyph unicode="&#xe902;" glyph-name="play_circle_outline" d="M512 84.667q140 0 241 101t101 241-101 241-241 101-241-101-101-241 101-241 241-101zM512 852.667q176 0 301-125t125-301-125-301-301-125-301 125-125 301 125 301 301 125zM426 234.667v384l256-192z" />
<glyph unicode="&#xe903;" glyph-name="crop_free" d="M810 810.667q34 0 60-26t26-60v-170h-86v170h-170v86h170zM810 128.667v170h86v-170q0-34-26-60t-60-26h-170v86h170zM214 298.667v-170h170v-86h-170q-34 0-60 26t-26 60v170h86zM128 724.667q0 34 26 60t60 26h170v-86h-170v-170h-86v170z" />
<glyph unicode="&#xe904;" glyph-name="tune" d="M640 554.667v256h86v-86h170v-84h-170v-86h-86zM896 384.667h-426v84h426v-84zM298 554.667h86v-256h-86v86h-170v84h170v86zM554 42.667h-84v256h84v-86h342v-84h-342v-86zM128 724.667h426v-84h-426v84zM128 212.667h256v-84h-256v84z" />
<glyph unicode="&#xe905;" glyph-name="local_grocery_store" d="M726 170.667q34 0 59-26t25-60-25-59-59-25-60 25-26 59 26 60 60 26zM42 852.667h140l40-84h632q18 0 30-13t12-31q0-2-6-20l-152-276q-24-44-74-44h-318l-38-70-2-6q0-10 10-10h494v-86h-512q-34 0-59 26t-25 60q0 20 10 40l58 106-154 324h-86v84zM298 170.667q34 0 60-26t26-60-26-59-60-25-59 25-25 59 25 60 59 26z" />
<glyph unicode="&#xe906;" glyph-name="fullscreen" d="M598 724.667h212v-212h-84v128h-128v84zM726 212.667v128h84v-212h-212v84h128zM214 512.667v212h212v-84h-128v-128h-84zM298 340.667v-128h128v-84h-212v212h84z" />
<glyph unicode="&#xe907;" glyph-name="fullscreen_exit" d="M682 596.667h128v-84h-212v212h84v-128zM598 128.667v212h212v-84h-128v-128h-84zM342 596.667v128h84v-212h-212v84h128zM214 256.667v84h212v-212h-84v128h-128z" />
<glyph unicode="&#xe908;" glyph-name="thumb_down_alt" d="M92 464.667l114 262q26 42 74 42h346q42 0 71-29t29-71v-334q0-36-26-62l-274-272-18 20q-24 24-38 52-6 14-4 28l40 198h-236q-34 0-59 26t-25 60v46q0 20 6 34zM938 768.667v-470h-84q-18 0-31 12t-13 30v384q0 18 13 31t31 13h84z" />
<glyph unicode="&#xe909;" glyph-name="thumb_up_alt" d="M932 388.667l-114-262q-26-42-74-42h-346q-40 0-70 30t-30 70v334q0 36 26 62l274 272 18-20q24-24 38-52 6-14 4-28l-40-198h236q34 0 59-26t25-60v-46q0-18-6-34zM86 84.667v470h84q18 0 31-12t13-30v-384q0-18-13-31t-31-13h-84z" />
<glyph unicode="&#xe90a;" glyph-name="star" d="M512 202.667l-264-160 70 300-232 202 306 26 120 282 120-282 306-26-232-202 70-300z" />
<glyph unicode="&#xe90b;" glyph-name="star_half" d="M512 280.667l160-96-42 182 142 124-188 16-72 172v-398zM938 544.667l-232-202 70-300-264 160-264-160 70 300-232 202 306 26 120 282 120-282z" />
<glyph unicode="&#xe90c;" glyph-name="star_outline" d="M512 280.667l160-96-42 182 142 124-188 16-72 172-72-172-188-16 142-124-42-182zM938 544.667l-232-202 70-300-264 160-264-160 70 300-232 202 306 26 120 282 120-282z" />
<glyph unicode="&#xe90d;" glyph-name="account_circle" d="M512 118.667q68 0 143 40t113 98q-2 56-90 94t-166 38-166-37-90-95q38-58 113-98t143-40zM512 724.667q-52 0-90-38t-38-90 38-90 90-38 90 38 38 90-38 90-90 38zM512 852.667q176 0 301-125t125-301-125-301-301-125-301 125-125 301 125 301 301 125z" />
<glyph unicode="&#xe90e;" glyph-name="add_shopping_cart" d="M306 308.667q0-10 10-10h494v-86h-512q-34 0-59 26t-25 60q0 20 10 40l58 106-154 324h-86v84h140q40-84 80-170 10-18 46-95t56-119h300q150 272 164 300l74-42-164-298q-24-44-74-44h-318l-38-70zM726 170.667q34 0 59-26t25-60-25-59-59-25-60 25-26 59 26 60 60 26zM298 170.667q34 0 60-26t26-60-26-59-60-25-59 25-25 59 25 60 59 26zM470 554.667v128h-128v86h128v128h84v-128h128v-86h-128v-128h-84z" />
<glyph unicode="&#xe90f;" glyph-name="favorite" d="M512 28.667l-62 56q-106 96-154 142t-107 114-81 123-22 113q0 98 67 166t167 68q116 0 192-90 76 90 192 90 100 0 167-68t67-166q0-78-52-162t-113-146-199-186z" />
<glyph unicode="&#xe910;" glyph-name="wishlist" horiz-adv-x="1173" d="M1172.647 645.25c-4.485 83.814-39.977 162.522-99.929 221.617-60.942 60.058-140.544 93.133-224.143 93.133-116.873 0-212.896-84.623-261.226-137.155-46.872 52.552-141.237 137.155-262.717 137.155-83.603 0-163.205-33.075-224.133-93.136-59.948-59.088-95.433-137.793-99.925-221.621-4.434-83.101 16.62-155.109 68.253-233.469 78.93-119.76 472.542-451.041 489.264-465.084 8.124-6.816 18.435-10.575 29.030-10.575 9.882 0 19.637 3.311 27.471 9.315l66.553 51.036c19.75 15.148 23.494 43.537 8.346 63.287-8.605 11.233-21.671 17.678-35.84 17.678-10.015 0-19.507-3.222-27.443-9.318l-37.67-28.884c-68.195 58.15-382.525 328.455-444.324 422.219-40.325 61.208-56.822 116.408-53.487 178.982 6.772 126.433 111.705 229.294 233.905 229.294 125.703 0 223.444-142.077 224.399-143.483 8.25-12.435 22.071-19.975 37.001-20.169l0.631-0.003c14.657 0 28.447 7.165 36.891 19.159 1.021 1.444 103.294 144.5 225.017 144.5 122.214 0 227.147-102.864 233.919-229.304 3.389-63.27-12.605-116.808-53.501-179.012-5.379-8.192-41.277-45.483-93.682-97.324-31.399-31.065-66.966-65.628-102.868-99.946-1.539-1.485-3.017-3.151-4.502-5.093-25.463-24.962-52.299-50.934-79.773-77.206-17.981-17.207-18.62-45.834-1.43-63.819 8.605-8.991 20.19-13.943 32.635-13.943 11.674 0 22.757 4.444 31.205 12.513 21.268 20.347 63.051 60.501 103.851 100.85l1.737 1.891c20.985 20.186 51.753 49.961 82.548 80.411 60.795 60.129 96.365 97.836 105.731 112.077 34.744 52.862 73.899 127.171 68.205 233.428z" />
<glyph unicode="&#xe911;" glyph-name="call" horiz-adv-x="1135" d="M1134.507 394.964c0 92.314-65.478 168.113-148.139 174.554-9.807 33.048-36.308 58.972-69.68 67.966-22.262 182.989-170.861 322.516-349.433 322.516s-327.171-139.527-349.43-322.516c-33.382-8.994-59.877-34.918-69.68-67.966-2.871-0.225-5.724-0.532-8.547-0.925v216.354c0 18.36-14.882 33.239-33.239 33.239-18.353 0-33.236-14.879-33.236-33.239v-242.958c-43.953-31.205-73.124-85.429-73.124-147.026 0-92.317 65.478-168.117 148.145-174.558 9.772-32.939 36.13-58.808 69.362-67.874 14.155-82.418 86.084-145.347 172.479-145.347h7.687c13.906-41.175 52.873-70.898 98.673-70.898h141.81c57.426 0 104.151 46.722 104.151 104.144 0 57.419-46.722 104.144-104.151 104.144h-141.81c-45.8 0-84.763-29.734-98.673-70.898h-7.687c-50.261 0-92.645 34.345-104.953 80.777 39.103 13.493 67.284 50.644 67.284 94.273v292.489c0 43.779-28.375 81.039-67.693 94.406 20.76 146.814 139.923 257.911 282.631 257.911 142.705 0 261.857-111.097 282.631-257.911-39.325-13.37-67.693-50.627-67.693-94.406v-292.489c0-54.982 44.728-99.717 99.707-99.717h8.871c45.152 0 83.364 30.17 95.597 71.404 82.661 6.434 148.139 82.234 148.139 174.551zM496.346 78.097h141.814c20.767 0 37.666-16.896 37.666-37.666 0-20.777-16.899-37.676-37.666-37.676h-141.814c-20.77 0-37.666 16.899-37.666 37.676-0.003 20.767 16.896 37.666 37.666 37.666zM66.475 394.964c0 52.702 34.181 98.089 77.558 106.998v-213.989c-43.38 8.902-77.558 54.282-77.558 106.991zM285.843 248.719c0-18.333-14.909-33.242-33.236-33.242h-8.864c-18.326 0-33.236 14.909-33.236 33.242 0 106.646 0 193.894 0 292.489 0 18.33 14.913 33.236 33.236 33.236h8.864c18.33 0 33.236-14.909 33.236-33.236v-292.489zM924.006 248.719c0-18.333-14.906-33.242-33.239-33.242h-8.868c-18.326 0-33.232 14.909-33.232 33.242v292.489c0 18.33 14.906 33.236 33.232 33.236h8.868c18.333 0 33.239-14.909 33.239-33.236v-292.489zM990.481 287.962v213.992c43.373-8.902 77.551-54.289 77.551-106.998-0.007-52.709-34.178-98.082-77.551-106.994z" />
<glyph unicode="&#xe912;" glyph-name="confidence" horiz-adv-x="1362" d="M1187.693 312.32c-53.193 0-159.792-27.945-222.413-45.78-12.428 80.48-116.064 108.189-221.491 129.601-48.346 9.803-84.33 27.18-119.159 43.998-43.858 21.149-85.282 41.127-140.875 41.127-58.194 0-111.766-10.848-147.866-20.483-10.428 30.034-35.632 52.224-66.84 58.443l-229.318 45.858c-9.602 1.929-19.941-0.642-27.607-6.892-7.704-6.369-12.124-15.729-12.124-25.685v-450.519c0-18.326 14.906-33.236 33.229-33.236h176.425c33.946 0 64.676 20.009 79.664 51.425 67.987-32.229 353.57-164.055 476.010-164.055 110.462 0 335.916 110.851 485.11 184.201l3.427 1.69c36.441 17.906 67.912 33.376 88.003 42.168 12.059 5.315 19.852 17.265 19.852 30.433-0.007 69.301-71.571 117.705-174.025 117.705zM765.327 2.584c-100.448 0-364.128 117.176-461.134 164.144l32.147 225.133c24.969 7.601 83.357 22.955 147.418 22.955 40.322 0 71.868-15.193 112.077-34.56 36.714-17.715 78.333-37.799 134.724-49.261 117.914-23.91 170.496-48.599 170.496-80.060 0-5.301-1.311-7.98-5.396-11.035-6.291-4.71-22.89-12.612-63.44-12.616-63.427-0.003-158.529 18.681-282.709 55.532-3.072 0.891-6.236 1.345-9.4 1.345-14.831 0-27.648-9.551-31.904-23.777-5.185-17.565 4.861-36.096 22.398-41.308 131.304-38.898 229.635-57.812 300.619-57.812 47.254 0 81.336 8.308 104.192 25.402 1.42 1.068 2.56 2.222 3.567 3.239 0.157 0.154 0.307 0.314 0.464 0.468 1.297 0.041 2.888 0.106 4.628 0.642 49.579 15.258 190 54.849 243.633 54.849 45.841 0 86.036-13.336 101.045-32.969-16.835-7.994-36.922-17.848-59.839-29.085l-7.813-3.833c-134.929-66.348-360.759-177.391-455.772-177.391zM209.654 115.214h-143.2v376.764l189.604-37.915c12.022-2.417 20.064-13.793 18.309-25.907l-41.847-293.127c-1.621-11.295-11.452-19.814-22.866-19.814zM877.957 442.962c76.066 0 146.558 44.5 180.439 113.62 107.172 6.103 190.689 93.894 190.689 201.189 0 111.483-90.699 202.175-202.185 202.175-76.394 0-147.135-44.527-181.084-113.695-106.813-6.42-190.034-94.184-190.034-201.11 0.003-111.479 90.696-202.179 202.175-202.179zM849.080 716.926c-2.918-5.209-4.345-10.288-4.345-15.466v-112.633c0-18.326 14.903-33.236 33.222-33.236 18.326 0 33.236 14.909 33.236 33.236v19.531c21.34-19.255 47.142-33.857 75.52-42.718-25.535-35.328-65.703-56.218-108.756-56.218-74.831 0-135.711 60.88-135.711 135.711-0.007 62.505 43.356 116.664 104.096 131.362-0.829-6.031-1.611-12.25-1.611-18.729 0-13.213 1.464-26.945 4.349-40.841zM1046.9 893.491c74.834 0 135.718-60.884 135.718-135.718s-60.884-135.714-135.718-135.714c-74.831 0-135.707 60.88-135.707 135.714s60.877 135.718 135.707 135.718zM1046.9 668.232c18.33 0 33.236 14.906 33.236 33.229v112.626c0 18.323-14.906 33.229-33.236 33.229-18.316 0-33.219-14.906-33.219-33.229v-112.63c-0.003-18.323 14.899-33.225 33.219-33.225z" />
<glyph unicode="&#xe913;" glyph-name="favorite_outline" d="M516 146.667q96 86 142 130t100 104 75 106 21 90q0 64-43 106t-107 42q-50 0-93-28t-59-72h-80q-16 44-59 72t-93 28q-64 0-107-42t-43-106q0-44 21-90t75-106 100-104 142-130l4-4zM704 810.667q100 0 167-68t67-166q0-58-22-113t-81-123-107-114-154-142l-62-56-62 54q-138 124-199 186t-113 146-52 162q0 98 67 166t167 68q116 0 192-90 76 90 192 90z" />
<glyph unicode="&#xe914;" glyph-name="friendly-services" horiz-adv-x="1536" d="M1375.853 960h-1215.87c-88.187 0-159.983-71.796-159.983-159.983v-703.932c0-88.187 71.799-159.983 159.986-159.983h1215.867c88.18 0 159.986 71.796 159.986 159.983v703.932c0 88.187-71.806 159.983-159.986 159.983zM1471.846 482.236v-386.144c0-52.927-43.059-95.99-95.986-95.99h-1215.877c-52.92 0-95.993 43.056-95.993 95.983v703.932c0 52.927 43.073 95.983 95.993 95.983h1215.874c52.927 0 95.986-43.063 95.986-95.99v-317.775zM426.107 711.892c-145.487 0-263.847-118.361-263.847-263.844s118.361-263.84 263.847-263.84c145.483 0 263.844 118.357 263.844 263.84s-118.361 263.844-263.844 263.844zM426.107 248.351c-39.601 0-77.763 11.595-110.64 33.584 19.739 43.295 62.72 71.038 110.64 71.038 47.923 0 90.907-27.747 110.65-71.038-32.887-21.989-71.055-33.584-110.65-33.584zM382.188 461.018v10.131c0 24.214 19.698 43.913 43.916 43.913s43.916-19.698 43.916-43.913v-10.131c0-24.218-19.698-43.916-43.916-43.916s-43.916 19.702-43.916 43.916zM585.141 327.438c-17.596 29.157-42.592 52.644-72.888 68.485 14.165 18.712 21.903 41.591 21.903 65.106v10.127c0 59.58-48.473 108.052-108.056 108.052s-108.056-48.473-108.056-108.052v-10.127c0-23.514 7.738-46.391 21.903-65.106-30.29-15.828-55.286-39.318-72.888-68.482-26.272 34.594-40.663 77.135-40.663 120.61 0 110.118 89.586 199.704 199.704 199.704s199.704-89.586 199.704-199.704c0.003-43.479-14.384-86.016-40.663-120.614zM841.144 420.768h500.361c17.681 0 32.068 14.387 32.068 32.072v215.6c0 17.684-14.387 32.072-32.068 32.072h-500.367c-17.688 0-32.072-14.387-32.072-32.072v-215.603c0.007-17.684 14.394-32.068 32.079-32.068zM873.213 636.372h436.227v-151.463h-436.234l0.007 151.463zM1341.58 264.448h-495.394c-17.661 0-32-14.333-32-32 0-17.661 14.339-32 32-32h495.391c17.661 0 32 14.339 32 32 0.003 17.664-14.339 32-31.997 32zM1341.58 372.255h-495.394c-17.661 0-32-14.333-32-32 0-17.661 14.339-32 32-32h495.391c17.661 0 32 14.339 32 32 0.003 17.664-14.339 32-31.997 32z" />
<glyph unicode="&#xe915;" glyph-name="payment" horiz-adv-x="1536" d="M1535.843 736.020c0 0.041-0.007 0.079-0.007 0.123v63.874c0 88.183-71.799 159.983-159.98 159.983h-1215.877c-88.183 0-159.983-71.799-159.983-159.983v-703.932c0-88.187 71.799-159.983 159.983-159.983h1215.867c88.18 0 159.986 71.796 159.986 159.983v447.84c0 0.038 0.007 0.079 0.007 0.116v191.98zM63.99 704.027h1407.853v-127.986h-1407.853v127.986zM159.98 896.007h1215.867c52.927 0 95.993-43.066 95.993-95.99v-31.997h-1407.85v31.997c0 52.924 43.066 95.99 95.99 95.99zM1375.857 0.102h-1215.877c-52.92 0-95.99 43.056-95.99 95.983v415.962h1407.853v-415.956c0-52.927-43.063-95.99-95.986-95.99zM223.976 256.072h255.966c17.661 0 32 14.329 32 31.986 0 17.667-14.339 32-32 32h-255.966c-17.664 0-32-14.333-32-32 0-17.644 14.339-31.986 32-31.986zM671.928 192.079h-447.952c-17.664 0-32-14.333-32-32 0-17.661 14.336-32 32-32h447.952c17.661 0 31.997 14.339 31.997 32 0 17.667-14.336 32-31.997 32z" />
<glyph unicode="&#xe916;" glyph-name="shipping" horiz-adv-x="1553" d="M894.536 393.407h129.406v-69.765h-129.406v69.765zM327.994 184.678h69.775v-69.769h-69.775v69.769zM1162.895 184.678h69.772v-69.769h-69.772v69.769zM1550.449 562.094l-370.152 370.152c-17.5 17.603-41.772 27.699-66.874 27.699l-1018.9-0.003c-52.125 0-94.525-42.404-94.525-94.522v-273.428h69.769v273.432c0 13.647 11.104 24.75 24.753 24.75l650.926 0.003v-447.266h69.769v447.266h298.206c6.54 0 12.926-2.642 17.527-7.253l42.247-42.25h-124.508c-35.673 0-64.693-29.024-64.693-64.703v-268.367c0-35.676 29.020-64.696 64.693-64.696h442.211v-233.472c0-13.647-11.107-24.753-24.747-24.753h-56.518c-16.34 102.298-104.953 180.477-211.849 180.477-106.899 0-195.512-78.179-211.852-180.477h-411.197c-16.343 102.298-104.953 180.477-211.849 180.477-106.899 0-195.512-78.179-211.852-180.477h-56.508c-13.65 0-24.753 11.1-24.753 24.747v273.428h-69.769v-273.428c0-52.118 42.404-94.515 94.525-94.515h56.784c16.988-101.526 105.216-178.913 211.569-178.913 106.349 0 194.577 77.387 211.569 178.91h411.757c16.995-101.523 105.219-178.91 211.575-178.91 106.349 0 194.577 77.387 211.569 178.91l56.791-0.014c52.122 0 94.519 42.411 94.519 94.529v327.997c0.007 9.315-3.618 18.077-10.213 24.672zM362.882 6.827c-79.394 0-143.753 64.358-143.753 143.749 0 79.394 64.358 143.753 143.753 143.753 79.391 0 143.749-64.358 143.749-143.753 0-79.391-64.358-143.749-143.749-143.749zM1197.783 6.827c-79.394 0-143.753 64.358-143.753 143.749 0 79.394 64.358 143.753 143.753 143.753 79.391 0 143.749-64.358 143.749-143.753 0-79.391-64.362-143.749-143.749-143.749zM1490.896 512.676h-437.135v258.225h189.215l247.921-247.921v-10.305z" />
<glyph unicode="&#xe917;" glyph-name="cart" horiz-adv-x="991" d="M300.513 723.941c0-0.177 0.024-0.341 0.027-0.519h-0.027v-18.545c0-107.482 87.439-194.922 194.922-194.922 107.465 0 194.918 87.439 194.918 194.922v18.545h-0.027c0 0.177 0.027 0.341 0.027 0.519 0 19.357-15.695 35.041-35.048 35.041-19.347 0-35.045-15.684-35.045-35.041 0-0.177 0.031-0.341 0.031-0.519h-0.024v-18.545c0-68.83-56.009-124.829-124.846-124.829-68.844 0-124.849 55.999-124.849 124.829v18.545h-0.017c0 0.177 0.024 0.341 0.024 0.519 0 19.357-15.691 35.041-35.045 35.041-19.333 0-35.021-15.684-35.021-35.041zM990.372 76.37l-67.553 766c-5.912 67.058-61.14 117.63-128.457 117.63l-342.528-0.044c-0.29 0.003-0.563 0.044-0.843 0.044-22.18 0-40.161-17.981-40.161-40.161s17.981-40.161 40.161-40.161h343.368c24.941 0 45.725-18.702 48.36-43.438 0.014-0.338 0.034-0.676 0.061-1.010l67.581-765.914c1.219-13.786-3.246-26.979-12.561-37.158-9.318-10.168-22.067-15.77-35.912-15.77h-732.921c-13.844 0-26.597 5.608-35.912 15.783-9.308 10.168-13.759 23.364-12.541 37.144l67.574 765.952c2.243 25.296 23.074 44.373 48.459 44.373l93.536 0.041c22.18 0 40.158 17.981 40.158 40.161s-17.978 40.158-40.158 40.158c-0.28 0-0.55-0.041-0.829-0.044h-92.706c-67.321 0-122.545-50.569-128.457-117.623l-67.594-765.962c-3.171-35.912 9.001-71.786 33.379-98.41 24.381-26.624 59.040-41.885 95.092-41.885h732.935c36.055 0 70.721 15.278 95.099 41.888 24.375 26.624 36.54 62.498 33.372 98.406z" />
<glyph unicode="&#xe918;" glyph-name="home1" d="M784.108-63.986h-544.075c-132.355 0-240.032 107.68-240.032 240.032v336.585c0 74.39 35.314 145.739 94.464 190.857l272.036 207.486c85.712 65.369 205.428 65.369 291.14 0l86.46-65.891v51.057c2.106 53.077 77.92 53.040 80.009 0v-131.84c0-15.206-8.622-29.095-22.258-35.85-13.626-6.748-29.908-5.185-42.004 4.031l-150.729 114.862c-57.146 43.592-136.963 43.592-194.103 0.007l-272.026-207.483c-39.431-30.075-62.976-77.636-62.976-127.232v-336.585c0-88.238 71.786-160.031 160.020-160.031h544.072c88.238 0 160.024 71.793 160.024 160.031v336.585c0 50.207-23.276 97.929-62.266 127.669-17.565 13.401-20.948 38.502-7.55 56.071 13.404 17.565 38.506 20.948 56.071 7.547 58.706-44.773 93.757-116.282 93.757-191.287v-336.585c-0.003-132.355-107.677-240.036-240.032-240.036zM432.056 498.087c-27.614 0-50.005-22.388-50.005-50.005 2.642-66.348 97.396-66.294 100.014 0 0 27.617-22.391 50.005-50.009 50.005zM642.086 448.085c-2.635-66.352-97.396-66.297-100.011 0 2.639 66.345 97.393 66.294 100.011 0zM482.065 288.068c-2.642-66.348-97.396-66.301-100.014 0 2.642 66.342 97.396 66.29 100.014 0zM642.086 288.068c-2.635-66.348-97.396-66.301-100.011 0 2.639 66.342 97.393 66.29 100.011 0z" />
<glyph unicode="&#xe919;" glyph-name="menu" d="M864 960h-151.999c-88.228 0-160-71.776-160-160v-151.999c0-88.224 71.772-160 160-160h151.999c88.224 0 160 71.776 160 160v151.999c0 88.224-71.776 160-160 160zM944.002 648.001c0-44.111-35.895-80.002-80.002-80.002h-151.999c-44.114 0-80.002 35.888-80.002 80.002v151.999c0 44.111 35.888 80.002 80.002 80.002h151.999c44.107 0 80.002-35.888 80.002-80.002v-151.999zM311.999 960h-151.999c-88.224 0-160-71.776-160-160v-151.999c0-88.224 71.776-160 160-160h151.999c88.224 0 160 71.776 160 160v151.999c0 88.224-71.776 160-160 160zM392.001 648.001c0-44.111-35.888-80.002-80.002-80.002h-151.999c-44.111 0-80.002 35.888-80.002 80.002v151.999c0 44.111 35.888 80.002 80.002 80.002h151.999c44.111 0 80.002-35.888 80.002-80.002v-151.999zM311.999 407.999h-151.999c-88.224 0-160-71.772-160-160v-151.999c0-88.228 71.776-160 160-160h151.999c88.224 0 160 71.772 160 160v151.999c0 88.228-71.776 160-160 160zM392.001 96c0-44.111-35.888-80.002-80.002-80.002h-151.999c-44.111 0-80.002 35.891-80.002 80.002v151.999c0 44.111 35.888 80.002 80.002 80.002h151.999c44.111 0 80.002-35.891 80.002-80.002v-151.999zM984.003 136.001c-22.095 0-40.004-17.906-40.004-40.001 0-44.111-35.891-80.002-80.002-80.002h-151.999c-44.107 0-80.002 35.891-80.002 80.002v151.999c0 44.111 35.895 80.002 80.002 80.002h151.999c31.809 0 60.6-18.838 73.353-47.995 8.854-20.241 32.433-29.474 52.675-20.623 20.244 8.854 29.478 32.437 20.627 52.678-25.487 58.279-83.053 95.939-146.654 95.939h-151.996c-88.224 0-160-71.772-160-160v-151.999c0-88.228 71.776-160 160-160h151.996c88.228 0 160.003 71.772 160.003 160 0 22.095-17.913 40.001-39.997 40.001z" />
<glyph unicode="&#xe91a;" glyph-name="user" d="M1021.402 82.558c-4.502 21.62-25.679 35.499-47.312 31-21.63-4.495-35.509-25.679-31.007-47.305 2.598-12.452-0.498-25.228-8.468-35.041-4.622-5.68-14.92-15.213-32-15.213h-781.227c-17.077 0-27.378 9.533-32 15.213-7.977 9.807-11.066 22.576-8.472 35.041 41.513 199.39 217.382 345.044 420.482 349.952 3.516-0.14 7.052-0.212 10.602-0.212 3.564 0 7.113 0.072 10.643 0.212 143.063-3.434 275.296-75.889 355.376-195.325 12.302-18.35 37.147-23.255 55.501-10.947 18.347 12.302 23.248 37.151 10.943 55.504-65.635 97.888-160.939 169.059-269.606 204.827 66.215 49.657 109.145 128.778 109.145 217.73 0 149.985-122.023 272.005-272.002 272.005-149.982 0-272.002-122.020-272.002-272.002 0-89.009 42.977-168.168 109.268-217.822-60.737-19.995-117.726-51.111-167.608-92.14-91.464-75.233-155.057-180.173-179.063-295.482-7.526-36.134 1.492-73.247 24.726-101.813 23.122-28.436 57.409-44.742 94.068-44.742h781.227c36.656 0 70.946 16.305 94.071 44.739 23.235 28.576 32.239 65.683 24.716 101.82zM320 687.998c0 105.871 86.129 192 192 192 105.875 0 192-86.129 192-192 0-102.612-80.91-186.679-182.279-191.758-3.232 0.061-6.472 0.089-9.721 0.089-3.229 0-6.458-0.031-9.68-0.092-101.39 5.062-182.32 89.139-182.32 191.761z" />
<glyph unicode="&#xe91b;" glyph-name="help-center" horiz-adv-x="1283" d="M1251.185 556.616c-17.381 0-31.526-14.141-31.526-31.526v-88.337c0-46.995-38.226-85.221-85.214-85.221h-141.302c-8.424 0-16.343-3.273-22.292-9.216l-159.809-159.819v137.51c0 17.384-14.141 31.522-31.522 31.522h-354.929c-46.988 0-85.21 38.226-85.21 85.217v375.002c0 46.981 38.226 85.2 85.21 85.2h709.857c46.988 0 85.217-38.219 85.217-85.2v-88.337c0-17.384 14.141-31.526 31.522-31.526s31.515 14.141 31.515 31.526v88.337c0.003 39.537-15.432 76.749-43.465 104.783-28.030 28.034-65.242 43.469-104.786 43.469h-709.861c-81.753 0-148.262-66.505-148.262-148.251v-311.75h-173.698c-56.593 0-102.632-46.039-102.632-102.629v-228.444c0-56.593 46.039-102.636 102.632-102.636h73.028l120.893-120.897c5.953-5.949 13.868-9.23 22.299-9.23 4.171 0 8.233 0.809 12.063 2.403 11.82 4.905 19.459 16.333 19.459 29.123v98.608h184.689c56.593 0 102.636 46.042 102.636 102.636v119.552h110.292v-182.091c0-12.797 7.639-24.224 19.453-29.116 3.843-1.597 7.902-2.41 12.070-2.41 8.431 0 16.35 3.284 22.292 9.24l204.384 204.377h128.253c81.749 0 148.258 66.512 148.258 148.268v88.337c0.003 17.384-14.135 31.526-31.515 31.526zM63.051 397.37c0 21.825 17.756 39.584 39.581 39.584h173.698v-0.208c0.003-81.753 66.512-148.268 148.262-148.268h150.067v-119.552c0-21.828-17.763-39.581-39.595-39.581h-216.211c-17.381 0-31.522-14.145-31.522-31.529v-54.030l-76.319 76.319c-5.871 5.874-14.001 9.24-22.296 9.24h-86.084c-21.825 0-39.581 17.753-39.581 39.581v228.444zM1021.225 797.549h-483.407c-17.384 0-31.526-14.141-31.526-31.522 0-17.384 14.141-31.526 31.526-31.526h483.41c17.381 0 31.515 14.141 31.515 31.526 0 17.381-14.138 31.522-31.519 31.522zM1052.744 632.149c0 17.381-14.138 31.522-31.515 31.522h-483.41c-17.384 0-31.526-14.141-31.526-31.522s14.141-31.522 31.526-31.522h483.41c17.377 0 31.515 14.141 31.515 31.522zM537.818 529.814c-17.384 0-31.526-14.141-31.526-31.526 0-17.381 14.141-31.522 31.526-31.522h278.89c17.381 0 31.519 14.141 31.519 31.522 0 17.384-14.141 31.526-31.519 31.526h-278.89zM1251.191 655.773c-17.381 0-31.519-14.141-31.519-31.526 0-17.381 14.141-31.519 31.519-31.519s31.519 14.141 31.519 31.519c0.003 17.384-14.138 31.526-31.519 31.526z" />
<glyph unicode="&#xe91c;" glyph-name="launch" d="M598 810.667h298v-298h-86v152l-418-418-60 60 418 418h-152v86zM810 128.667v298h86v-298q0-34-26-60t-60-26h-596q-36 0-61 25t-25 61v596q0 36 25 61t61 25h298v-86h-298v-596h596z" />
<glyph unicode="&#xe91d;" glyph-name="stars" d="M692 170.667l-48 206 160 138-210 18-82 192-82-194-210-16 160-138-48-206 180 108zM512 852.667q176 0 301-125t125-301-125-301-301-125-301 125-125 301 125 301 301 125z" />
<glyph unicode="&#xe91e;" glyph-name="delete_outline" d="M662 768.667h148v-86h-596v86h148l44 42h212zM342 554.667v-426h340v426h-340zM256 128.667v512h512v-512q0-34-26-60t-60-26h-340q-34 0-60 26t-26 60z" />
<glyph unicode="&#xe91f;" glyph-name="star_outline1" d="M938 544.667l-306 26-120 282-120-282-306-26 232-202-70-300 264 160 264-160-70 300zM512 280.667l-160-96 42 182-142 124 188 16 72 172 72-172 188-16-142-124 42-182z" />
<glyph unicode="&#xe920;" glyph-name="star_rate" d="M616 512.667l-104 340-104-340h-322l264-188-102-324 264 200 264-200-100 324 262 188h-322z" />
<glyph unicode="&#xe921;" glyph-name="activity" d="M938.667 469.334h-170.667c-18.731 0-34.645-12.075-40.491-29.184l-87.509-262.571-215.509 646.571c-7.467 22.357-31.616 34.432-53.973 27.008-13.227-4.395-22.827-14.635-27.008-27.008l-118.272-354.816h-139.904c-23.552 0-42.667-19.115-42.667-42.667s19.115-42.667 42.667-42.667h170.667c18.048 0.128 34.56 11.392 40.491 29.184l87.509 262.571 215.509-646.571c4.181-12.373 13.781-22.571 26.965-26.965 22.357-7.467 46.507 4.651 53.973 26.965l118.315 354.816h139.904c23.552 0 42.667 19.115 42.667 42.667s-19.115 42.667-42.667 42.667z" />
<glyph unicode="&#xe922;" glyph-name="airplay" d="M213.333 256h-42.667c-11.776 0-22.4 4.736-30.165 12.501s-12.501 18.389-12.501 30.165v426.667c0 11.776 4.736 22.4 12.501 30.165s18.389 12.501 30.165 12.501h682.667c11.776 0 22.4-4.736 30.165-12.501s12.501-18.389 12.501-30.165v-426.667c0-11.776-4.736-22.4-12.501-30.165s-18.389-12.501-30.165-12.501h-42.667c-23.552 0-42.667-19.115-42.667-42.667s19.115-42.667 42.667-42.667h42.667c35.328 0 67.413 14.379 90.496 37.504s37.504 55.168 37.504 90.496v426.667c0 35.328-14.379 67.413-37.504 90.496s-55.168 37.504-90.496 37.504h-682.667c-35.328 0-67.413-14.379-90.496-37.504s-37.504-55.168-37.504-90.496v-426.667c0-35.328 14.379-67.413 37.504-90.496s55.168-37.504 90.496-37.504h42.667c23.552 0 42.667 19.115 42.667 42.667s-19.115 42.667-42.667 42.667zM544.768 325.974c-1.493 1.835-3.371 3.712-5.461 5.461-18.091 15.104-45.013 12.629-60.075-5.461l-213.333-256c-6.144-7.339-9.899-16.896-9.899-27.307 0-23.552 19.115-42.667 42.667-42.667h426.667c9.6-0.043 19.328 3.2 27.307 9.899 18.091 15.104 20.565 41.984 5.461 60.075zM512 232.022l122.24-146.688h-244.48z" />
<glyph unicode="&#xe923;" glyph-name="alert-circle" d="M981.333 426.667c0 129.579-52.565 246.997-137.472 331.861s-202.283 137.472-331.861 137.472-246.997-52.565-331.861-137.472-137.472-202.283-137.472-331.861 52.565-246.997 137.472-331.861 202.283-137.472 331.861-137.472 246.997 52.565 331.861 137.472 137.472 202.283 137.472 331.861zM896 426.667c0-106.069-42.923-201.984-112.469-271.531s-165.461-112.469-271.531-112.469-201.984 42.923-271.531 112.469-112.469 165.461-112.469 271.531 42.923 201.984 112.469 271.531 165.461 112.469 271.531 112.469 201.984-42.923 271.531-112.469 112.469-165.461 112.469-271.531zM469.333 597.334v-170.667c0-23.552 19.115-42.667 42.667-42.667s42.667 19.115 42.667 42.667v170.667c0 23.552-19.115 42.667-42.667 42.667s-42.667-19.115-42.667-42.667zM512 213.334c23.552 0 42.667 19.115 42.667 42.667s-19.115 42.667-42.667 42.667-42.667-19.115-42.667-42.667 19.115-42.667 42.667-42.667z" />
<glyph unicode="&#xe924;" glyph-name="alert-octagon" d="M335.36 896c-10.923 0-21.845-4.181-30.165-12.501l-250.027-250.027c-7.723-7.723-12.501-18.389-12.501-30.165v-353.28c0-10.923 4.181-21.845 12.501-30.165l250.027-250.027c7.723-7.723 18.389-12.501 30.165-12.501h353.28c10.923 0 21.845 4.181 30.165 12.501l250.027 250.027c7.723 7.723 12.501 18.389 12.501 30.165v353.28c0 10.923-4.181 21.845-12.501 30.165l-250.027 250.027c-7.723 7.723-18.389 12.501-30.165 12.501zM353.024 810.667h317.952l225.024-225.024v-317.952l-225.024-225.024h-317.952l-225.024 225.024v317.952zM469.333 597.334v-170.667c0-23.552 19.115-42.667 42.667-42.667s42.667 19.115 42.667 42.667v170.667c0 23.552-19.115 42.667-42.667 42.667s-42.667-19.115-42.667-42.667zM512 213.334c23.552 0 42.667 19.115 42.667 42.667s-19.115 42.667-42.667 42.667-42.667-19.115-42.667-42.667 19.115-42.667 42.667-42.667z" />
<glyph unicode="&#xe925;" glyph-name="alert-triangle" d="M475.648 752.043c3.115 5.248 7.893 10.325 14.251 14.165 10.069 6.101 21.589 7.595 32.256 4.949s20.224-9.216 26.197-19.115l361.216-603.008c2.987-5.12 5.077-11.435 5.461-18.517-0.64-15.701-5.077-25.216-12.075-32.384-7.68-7.851-18.219-12.715-29.568-12.843l-722.645 0.043c-6.485 0.043-13.696 1.749-20.523 5.717-10.197 5.888-17.024 15.317-19.883 25.899s-1.621 22.144 3.925 31.787zM402.432 795.904l-361.387-603.307c-18.005-31.189-21.589-66.133-13.141-97.707s29.013-60.075 59.648-77.739c19.797-11.435 41.643-17.067 62.933-17.152h722.901c35.797 0.384 67.712 15.104 90.581 38.485s36.864 55.595 36.48 90.923c-0.256 22.869-6.528 44.544-17.323 62.891l-361.557 603.605c-18.432 30.421-47.36 50.389-79.104 58.155s-66.603 3.456-96.811-14.891c-18.304-11.093-33.067-26.24-43.179-43.264zM469.333 554.667v-170.667c0-23.552 19.115-42.667 42.667-42.667s42.667 19.115 42.667 42.667v170.667c0 23.552-19.115 42.667-42.667 42.667s-42.667-19.115-42.667-42.667zM512 170.667c23.552 0 42.667 19.115 42.667 42.667s-19.115 42.667-42.667 42.667-42.667-19.115-42.667-42.667 19.115-42.667 42.667-42.667z" />
<glyph unicode="&#xe926;" glyph-name="align-center" d="M768 554.667h-512c-23.552 0-42.667-19.115-42.667-42.667s19.115-42.667 42.667-42.667h512c23.552 0 42.667 19.115 42.667 42.667s-19.115 42.667-42.667 42.667zM896 725.334h-768c-23.552 0-42.667-19.115-42.667-42.667s19.115-42.667 42.667-42.667h768c23.552 0 42.667 19.115 42.667 42.667s-19.115 42.667-42.667 42.667zM896 384h-768c-23.552 0-42.667-19.115-42.667-42.667s19.115-42.667 42.667-42.667h768c23.552 0 42.667 19.115 42.667 42.667s-19.115 42.667-42.667 42.667zM768 213.334h-512c-23.552 0-42.667-19.115-42.667-42.667s19.115-42.667 42.667-42.667h512c23.552 0 42.667 19.115 42.667 42.667s-19.115 42.667-42.667 42.667z" />
<glyph unicode="&#xe927;" glyph-name="align-justify" d="M896 554.667h-768c-23.552 0-42.667-19.115-42.667-42.667s19.115-42.667 42.667-42.667h768c23.552 0 42.667 19.115 42.667 42.667s-19.115 42.667-42.667 42.667zM896 725.334h-768c-23.552 0-42.667-19.115-42.667-42.667s19.115-42.667 42.667-42.667h768c23.552 0 42.667 19.115 42.667 42.667s-19.115 42.667-42.667 42.667zM896 384h-768c-23.552 0-42.667-19.115-42.667-42.667s19.115-42.667 42.667-42.667h768c23.552 0 42.667 19.115 42.667 42.667s-19.115 42.667-42.667 42.667zM896 213.334h-768c-23.552 0-42.667-19.115-42.667-42.667s19.115-42.667 42.667-42.667h768c23.552 0 42.667 19.115 42.667 42.667s-19.115 42.667-42.667 42.667z" />
<glyph unicode="&#xe928;" glyph-name="align-left" d="M725.333 554.667h-597.333c-23.552 0-42.667-19.115-42.667-42.667s19.115-42.667 42.667-42.667h597.333c23.552 0 42.667 19.115 42.667 42.667s-19.115 42.667-42.667 42.667zM896 725.334h-768c-23.552 0-42.667-19.115-42.667-42.667s19.115-42.667 42.667-42.667h768c23.552 0 42.667 19.115 42.667 42.667s-19.115 42.667-42.667 42.667zM896 384h-768c-23.552 0-42.667-19.115-42.667-42.667s19.115-42.667 42.667-42.667h768c23.552 0 42.667 19.115 42.667 42.667s-19.115 42.667-42.667 42.667zM725.333 213.334h-597.333c-23.552 0-42.667-19.115-42.667-42.667s19.115-42.667 42.667-42.667h597.333c23.552 0 42.667 19.115 42.667 42.667s-19.115 42.667-42.667 42.667z" />
<glyph unicode="&#xe929;" glyph-name="align-right" d="M896 554.667h-597.333c-23.552 0-42.667-19.115-42.667-42.667s19.115-42.667 42.667-42.667h597.333c23.552 0 42.667 19.115 42.667 42.667s-19.115 42.667-42.667 42.667zM896 725.334h-768c-23.552 0-42.667-19.115-42.667-42.667s19.115-42.667 42.667-42.667h768c23.552 0 42.667 19.115 42.667 42.667s-19.115 42.667-42.667 42.667zM896 384h-768c-23.552 0-42.667-19.115-42.667-42.667s19.115-42.667 42.667-42.667h768c23.552 0 42.667 19.115 42.667 42.667s-19.115 42.667-42.667 42.667zM896 213.334h-597.333c-23.552 0-42.667-19.115-42.667-42.667s19.115-42.667 42.667-42.667h597.333c23.552 0 42.667 19.115 42.667 42.667s-19.115 42.667-42.667 42.667z" />
<glyph unicode="&#xe92a;" glyph-name="anchor" d="M597.333 725.334c0-23.595-9.515-44.843-25.003-60.331s-36.736-25.003-60.331-25.003-44.843 9.515-60.331 25.003-25.003 36.736-25.003 60.331 9.515 44.843 25.003 60.331 36.736 25.003 60.331 25.003 44.843-9.515 60.331-25.003 25.003-36.736 25.003-60.331zM213.333 469.334h-128c-23.552 0-42.667-19.115-42.667-42.667 0-129.579 52.565-246.997 137.472-331.861s202.283-137.472 331.861-137.472 246.997 52.565 331.861 137.472 137.472 202.283 137.472 331.861c0 23.552-19.115 42.667-42.667 42.667h-128c-23.552 0-42.667-19.115-42.667-42.667s19.115-42.667 42.667-42.667h82.987c-9.813-89.003-50.048-168.789-110.123-228.864s-139.861-100.309-228.864-110.123v515.029c29.995 7.723 56.832 23.424 77.995 44.587 30.848 30.848 50.005 73.6 50.005 120.704s-19.157 89.856-50.005 120.661-73.557 50.005-120.661 50.005-89.856-19.157-120.661-50.005-50.005-73.557-50.005-120.661 19.157-89.856 50.005-120.661c21.163-21.205 48-36.907 77.995-44.629v-515.029c-89.003 9.813-168.789 50.048-228.864 110.123s-100.309 139.861-110.123 228.864h82.987c23.552 0 42.667 19.115 42.667 42.667s-19.115 42.667-42.667 42.667z" />
<glyph unicode="&#xe92b;" glyph-name="aperture" d="M487.339 640l94.848 164.267c77.867-14.379 147.499-52.267 201.344-106.069 17.749-17.749 33.792-37.248 47.829-58.197h-221.611zM314.88 512l-94.805 164.139c6.528 7.637 13.312 14.976 20.395 22.059 64 64 150.4 105.472 246.4 111.659l-110.592-191.573zM339.541 298.667h-189.696c-14.165 40.021-21.845 83.115-21.845 128 0 61.013 14.208 118.656 39.509 169.899l110.933-192.171zM745.515 448.939l-61.056 105.728h189.696c14.165-40.021 21.845-83.115 21.845-128 0-61.013-14.208-118.656-39.509-169.899l-109.909 190.379zM537.088 43.478l172.032 297.856 94.805-164.181c-6.528-7.595-13.312-14.976-20.395-22.016-64-64-150.4-105.472-246.4-111.659zM456.533-39.424c1.963-0.341 3.925-0.597 5.931-0.64 16.256-1.707 32.811-2.603 49.536-2.603 129.579 0 246.997 52.565 331.861 137.472 15.616 15.616 30.123 32.299 43.392 49.963 1.792 2.005 3.371 4.139 4.693 6.357 56.235 77.355 89.387 172.629 89.387 275.541 0 65.664-13.525 128.213-37.888 185.003-0.683 1.877-1.451 3.669-2.347 5.376-23.595 53.077-56.747 100.992-97.237 141.483-72.576 72.576-168.96 121.557-276.395 134.229-1.963 0.341-3.925 0.597-5.931 0.64-16.256 1.707-32.811 2.603-49.536 2.603-129.579 0-246.997-52.565-331.861-137.472-15.616-15.573-30.123-32.299-43.392-49.963-1.792-2.005-3.371-4.139-4.736-6.357-56.192-77.355-89.344-172.629-89.344-275.541 0-65.664 13.525-128.213 37.888-185.003 0.683-1.877 1.451-3.669 2.347-5.376 23.595-53.077 56.747-100.992 97.237-141.483 72.576-72.576 168.96-121.557 276.395-134.229zM536.661 213.334l-94.848-164.267c-77.867 14.379-147.499 52.267-201.344 106.069-17.749 17.749-33.792 37.248-47.829 58.197h221.611zM659.84 426.667l-73.899-128h-147.883l-73.899 128 73.899 128h147.883z" />
<glyph unicode="&#xe92c;" glyph-name="archive" d="M170.667 554.667h682.667v-469.333h-682.667zM42.667 853.334c-23.552 0-42.667-19.115-42.667-42.667v-213.333c0-23.552 19.115-42.667 42.667-42.667h42.667v-512c0-23.552 19.115-42.667 42.667-42.667h768c23.552 0 42.667 19.115 42.667 42.667v512h42.667c23.552 0 42.667 19.115 42.667 42.667v213.333c0 23.552-19.115 42.667-42.667 42.667zM85.333 768h853.333v-128h-853.333zM426.667 384h170.667c23.552 0 42.667 19.115 42.667 42.667s-19.115 42.667-42.667 42.667h-170.667c-23.552 0-42.667-19.115-42.667-42.667s19.115-42.667 42.667-42.667z" />
<glyph unicode="&#xe92d;" glyph-name="arrow-down" d="M780.501 456.832l-225.835-225.835v494.336c0 23.552-19.115 42.667-42.667 42.667s-42.667-19.115-42.667-42.667v-494.336l-225.835 225.835c-16.683 16.683-43.691 16.683-60.331 0s-16.683-43.691 0-60.331l298.667-298.667c3.925-3.925 8.619-7.083 13.824-9.259 10.453-4.309 22.229-4.309 32.683 0 5.035 2.091 9.728 5.163 13.824 9.259l298.667 298.667c16.683 16.683 16.683 43.691 0 60.331s-43.691 16.683-60.331 0z" />
<glyph unicode="&#xe92e;" glyph-name="arrow-down-circle" d="M981.333 426.667c0 129.579-52.565 246.997-137.472 331.861s-202.283 137.472-331.861 137.472-246.997-52.565-331.861-137.472-137.472-202.283-137.472-331.861 52.565-246.997 137.472-331.861 202.283-137.472 331.861-137.472 246.997 52.565 331.861 137.472 137.472 202.283 137.472 331.861zM896 426.667c0-106.069-42.923-201.984-112.469-271.531s-165.461-112.469-271.531-112.469-201.984 42.923-271.531 112.469-112.469 165.461-112.469 271.531 42.923 201.984 112.469 271.531 165.461 112.469 271.531 112.469 201.984-42.923 271.531-112.469 112.469-165.461 112.469-271.531zM469.333 597.334v-238.336l-97.835 97.835c-16.683 16.683-43.691 16.683-60.331 0s-16.683-43.691 0-60.331l170.667-170.667c3.925-3.925 8.619-7.083 13.824-9.259 10.453-4.309 22.229-4.309 32.683 0 5.035 2.091 9.728 5.163 13.824 9.259l170.667 170.667c16.683 16.683 16.683 43.691 0 60.331s-43.691 16.683-60.331 0l-97.835-97.835v238.336c0 23.552-19.115 42.667-42.667 42.667s-42.667-19.115-42.667-42.667z" />
<glyph unicode="&#xe92f;" glyph-name="arrow-down-left" d="M725.333 256h-323.669l353.835 353.835c16.683 16.683 16.683 43.691 0 60.331s-43.691 16.683-60.331 0l-353.835-353.835v323.669c0 23.552-19.115 42.667-42.667 42.667s-42.667-19.115-42.667-42.667v-426.667c0-23.552 19.115-42.667 42.667-42.667h426.667c23.552 0 42.667 19.115 42.667 42.667s-19.115 42.667-42.667 42.667z" />
<glyph unicode="&#xe930;" glyph-name="arrow-down-right" d="M682.667 640v-323.669l-353.835 353.835c-16.683 16.683-43.691 16.683-60.331 0s-16.683-43.691 0-60.331l353.835-353.835h-323.669c-23.552 0-42.667-19.115-42.667-42.667s19.115-42.667 42.667-42.667h426.667c5.803 0 11.307 1.152 16.341 3.243s9.728 5.163 13.824 9.259c3.925 3.925 7.083 8.619 9.259 13.824 2.091 5.035 3.243 10.539 3.243 16.341v426.667c0 23.552-19.115 42.667-42.667 42.667s-42.667-19.115-42.667-42.667z" />
<glyph unicode="&#xe931;" glyph-name="arrow-left" d="M542.165 158.166l-225.835 225.835h494.336c23.552 0 42.667 19.115 42.667 42.667s-19.115 42.667-42.667 42.667h-494.336l225.835 225.835c16.683 16.683 16.683 43.691 0 60.331s-43.691 16.683-60.331 0l-298.667-298.667c-4.096-4.096-7.168-8.789-9.259-13.824-2.176-5.205-3.243-10.795-3.243-16.341 0-10.923 4.181-21.845 12.501-30.165l298.667-298.667c16.683-16.683 43.691-16.683 60.331 0s16.683 43.691 0 60.331z" />
<glyph unicode="&#xe932;" glyph-name="arrow-left-circle" d="M981.333 426.667c0 129.579-52.565 246.997-137.472 331.861s-202.283 137.472-331.861 137.472-246.997-52.565-331.861-137.472-137.472-202.283-137.472-331.861 52.565-246.997 137.472-331.861 202.283-137.472 331.861-137.472 246.997 52.565 331.861 137.472 137.472 202.283 137.472 331.861zM896 426.667c0-106.069-42.923-201.984-112.469-271.531s-165.461-112.469-271.531-112.469-201.984 42.923-271.531 112.469-112.469 165.461-112.469 271.531 42.923 201.984 112.469 271.531 165.461 112.469 271.531 112.469 201.984-42.923 271.531-112.469 112.469-165.461 112.469-271.531zM682.667 469.334h-238.336l97.835 97.835c16.683 16.683 16.683 43.691 0 60.331s-43.691 16.683-60.331 0l-170.667-170.667c-4.096-4.096-7.168-8.789-9.259-13.824-2.176-5.205-3.243-10.795-3.243-16.341 0-10.923 4.181-21.845 12.501-30.165l170.667-170.667c16.683-16.683 43.691-16.683 60.331 0s16.683 43.691 0 60.331l-97.835 97.835h238.336c23.552 0 42.667 19.115 42.667 42.667s-19.115 42.667-42.667 42.667z" />
<glyph unicode="&#xe933;" glyph-name="arrow-right" d="M481.835 695.168l225.835-225.835h-494.336c-23.552 0-42.667-19.115-42.667-42.667s19.115-42.667 42.667-42.667h494.336l-225.835-225.835c-16.683-16.683-16.683-43.691 0-60.331s43.691-16.683 60.331 0l298.667 298.667c3.925 3.925 7.083 8.619 9.259 13.824 4.309 10.453 4.309 22.229 0 32.683-2.091 5.035-5.163 9.728-9.259 13.824l-298.667 298.667c-16.683 16.683-43.691 16.683-60.331 0s-16.683-43.691 0-60.331z" />
<glyph unicode="&#xe934;" glyph-name="arrow-right-circle" d="M981.333 426.667c0 129.579-52.565 246.997-137.472 331.861s-202.283 137.472-331.861 137.472-246.997-52.565-331.861-137.472-137.472-202.283-137.472-331.861 52.565-246.997 137.472-331.861 202.283-137.472 331.861-137.472 246.997 52.565 331.861 137.472 137.472 202.283 137.472 331.861zM896 426.667c0-106.069-42.923-201.984-112.469-271.531s-165.461-112.469-271.531-112.469-201.984 42.923-271.531 112.469-112.469 165.461-112.469 271.531 42.923 201.984 112.469 271.531 165.461 112.469 271.531 112.469 201.984-42.923 271.531-112.469 112.469-165.461 112.469-271.531zM341.333 384h238.336l-97.835-97.835c-16.683-16.683-16.683-43.691 0-60.331s43.691-16.683 60.331 0l170.667 170.667c3.925 3.925 7.083 8.619 9.259 13.824 4.309 10.453 4.309 22.229 0 32.683-2.091 5.035-5.163 9.728-9.259 13.824l-170.667 170.667c-16.683 16.683-43.691 16.683-60.331 0s-16.683-43.691 0-60.331l97.835-97.835h-238.336c-23.552 0-42.667-19.115-42.667-42.667s19.115-42.667 42.667-42.667z" />
<glyph unicode="&#xe935;" glyph-name="arrow-up" d="M243.499 396.502l225.835 225.835v-494.336c0-23.552 19.115-42.667 42.667-42.667s42.667 19.115 42.667 42.667v494.336l225.835-225.835c16.683-16.683 43.691-16.683 60.331 0s16.683 43.691 0 60.331l-298.667 298.667c-3.925 3.925-8.619 7.083-13.824 9.259s-10.795 3.243-16.341 3.243c-10.923 0-21.845-4.181-30.165-12.501l-298.667-298.667c-16.683-16.683-16.683-43.691 0-60.331s43.691-16.683 60.331 0z" />
<glyph unicode="&#xe936;" glyph-name="arrow-up-circle" d="M981.333 426.667c0 129.579-52.565 246.997-137.472 331.861s-202.283 137.472-331.861 137.472-246.997-52.565-331.861-137.472-137.472-202.283-137.472-331.861 52.565-246.997 137.472-331.861 202.283-137.472 331.861-137.472 246.997 52.565 331.861 137.472 137.472 202.283 137.472 331.861zM896 426.667c0-106.069-42.923-201.984-112.469-271.531s-165.461-112.469-271.531-112.469-201.984 42.923-271.531 112.469-112.469 165.461-112.469 271.531 42.923 201.984 112.469 271.531 165.461 112.469 271.531 112.469 201.984-42.923 271.531-112.469 112.469-165.461 112.469-271.531zM554.667 256v238.336l97.835-97.835c16.683-16.683 43.691-16.683 60.331 0s16.683 43.691 0 60.331l-170.667 170.667c-4.096 4.096-8.789 7.168-13.824 9.259-5.205 2.176-10.795 3.243-16.341 3.243-10.923 0-21.845-4.181-30.165-12.501l-170.667-170.667c-16.683-16.683-16.683-43.691 0-60.331s43.691-16.683 60.331 0l97.835 97.835v-238.336c0-23.552 19.115-42.667 42.667-42.667s42.667 19.115 42.667 42.667z" />
<glyph unicode="&#xe937;" glyph-name="arrow-up-left" d="M341.333 213.334v323.669l353.835-353.835c16.683-16.683 43.691-16.683 60.331 0s16.683 43.691 0 60.331l-353.835 353.835h323.669c23.552 0 42.667 19.115 42.667 42.667s-19.115 42.667-42.667 42.667h-426.667c-23.552 0-42.667-19.115-42.667-42.667v-426.667c0-23.552 19.115-42.667 42.667-42.667s42.667 19.115 42.667 42.667z" />
<glyph unicode="&#xe938;" glyph-name="arrow-up-right" d="M298.667 597.334h323.669l-353.835-353.835c-16.683-16.683-16.683-43.691 0-60.331s43.691-16.683 60.331 0l353.835 353.835v-323.669c0-23.552 19.115-42.667 42.667-42.667s42.667 19.115 42.667 42.667v426.667c0 5.803-1.152 11.307-3.243 16.341s-5.163 9.728-9.216 13.781c-0.043 0.043-0.043 0.043-0.085 0.085-3.925 3.925-8.619 7.083-13.781 9.216-5.035 2.091-10.539 3.243-16.341 3.243h-426.667c-23.552 0-42.667-19.115-42.667-42.667s19.115-42.667 42.667-42.667z" />
<glyph unicode="&#xe939;" glyph-name="at-sign" d="M640 426.667c0-35.371-14.293-67.285-37.504-90.496s-55.125-37.504-90.496-37.504-67.285 14.293-90.496 37.504-37.504 55.125-37.504 90.496 14.293 67.285 37.504 90.496 55.125 37.504 90.496 37.504 67.285-14.293 90.496-37.504 37.504-55.125 37.504-90.496zM671.573 285.099c5.547-7.765 11.691-15.061 18.389-21.76 30.848-30.848 73.6-50.005 120.704-50.005s89.856 19.157 120.661 50.005 50.005 73.557 50.005 120.661v42.667c0 129.579-52.608 246.997-137.472 331.861s-202.283 137.472-331.904 137.429-246.955-52.565-331.861-137.472-137.429-202.283-137.429-331.861 52.608-246.997 137.472-331.861 202.283-137.472 331.861-137.429c107.733 0 207.147 36.352 285.44 96.811 18.645 14.379 22.101 41.173 7.68 59.861s-41.173 22.101-59.861 7.68c-63.445-48.981-144.085-78.677-231.893-79.019-108.373 0.384-203.776 43.264-272.981 112.469-69.419 69.504-112.384 165.419-112.384 271.488s42.923 201.984 112.469 271.531 165.461 112.469 271.531 112.469 201.984-42.923 271.531-112.469 112.469-165.461 112.469-271.488v-42.667c0-23.595-9.515-44.843-25.003-60.331s-36.736-25.003-60.331-25.003-44.843 9.515-60.331 25.003-25.003 36.736-25.003 60.331v213.333c0 23.552-19.115 42.667-42.667 42.667s-42.667-19.115-42.667-42.667c-35.627 26.752-80 42.667-128 42.667-58.88 0-112.299-23.936-150.869-62.464s-62.464-91.989-62.464-150.869 23.936-112.299 62.464-150.869 91.989-62.464 150.869-62.464 112.299 23.936 150.869 62.464c2.987 2.987 5.931 6.101 8.747 9.259z" />
<glyph unicode="&#xe93a;" glyph-name="award" d="M639.403 280.576l32-241.152-137.429 82.475c-13.269 7.851-29.995 8.363-43.904 0l-137.429-82.475 32.043 241.109c39.296-15.829 82.304-24.533 127.317-24.533s88.021 8.747 127.403 24.576zM654.165 384.384c-2.475-1.28-4.821-2.773-6.955-4.48-39.253-24.448-85.547-38.571-135.211-38.571-70.699 0-134.656 28.587-181.035 74.965s-74.965 110.336-74.965 181.035 28.587 134.656 74.965 181.035 110.336 74.965 181.035 74.965 134.656-28.587 181.035-74.965 74.965-110.336 74.965-181.035-28.587-134.656-74.965-181.035c-11.861-11.861-24.875-22.571-38.869-31.915zM304.64 326.187l-48.256-363.221c-3.115-23.339 13.312-44.8 36.693-47.915 9.984-1.323 19.669 0.939 27.563 5.717l191.36 114.816 191.403-114.816c20.224-12.117 46.421-5.589 58.539 14.635 5.205 8.661 6.955 18.389 5.717 27.563l-48.213 363.307c11.947 9.173 23.296 19.115 33.92 29.739 61.696 61.696 99.968 147.072 99.968 241.323s-38.272 179.627-99.968 241.365-147.115 99.968-241.365 99.968-179.627-38.272-241.365-99.968-99.968-147.115-99.968-241.365 38.272-179.627 99.968-241.365c10.667-10.667 22.016-20.608 33.963-29.781z" />
<glyph unicode="&#xe93b;" glyph-name="bar-chart" d="M554.667 85.334v426.667c0 23.552-19.115 42.667-42.667 42.667s-42.667-19.115-42.667-42.667v-426.667c0-23.552 19.115-42.667 42.667-42.667s42.667 19.115 42.667 42.667zM810.667 85.334v682.667c0 23.552-19.115 42.667-42.667 42.667s-42.667-19.115-42.667-42.667v-682.667c0-23.552 19.115-42.667 42.667-42.667s42.667 19.115 42.667 42.667zM298.667 85.334v170.667c0 23.552-19.115 42.667-42.667 42.667s-42.667-19.115-42.667-42.667v-170.667c0-23.552 19.115-42.667 42.667-42.667s42.667 19.115 42.667 42.667z" />
<glyph unicode="&#xe93c;" glyph-name="bar-chart-2" d="M810.667 85.334v426.667c0 23.552-19.115 42.667-42.667 42.667s-42.667-19.115-42.667-42.667v-426.667c0-23.552 19.115-42.667 42.667-42.667s42.667 19.115 42.667 42.667zM554.667 85.334v682.667c0 23.552-19.115 42.667-42.667 42.667s-42.667-19.115-42.667-42.667v-682.667c0-23.552 19.115-42.667 42.667-42.667s42.667 19.115 42.667 42.667zM298.667 85.334v256c0 23.552-19.115 42.667-42.667 42.667s-42.667-19.115-42.667-42.667v-256c0-23.552 19.115-42.667 42.667-42.667s42.667 19.115 42.667 42.667z" />
<glyph unicode="&#xe93d;" glyph-name="battery" d="M128 725.334c-35.328 0-67.413-14.379-90.496-37.504s-37.504-55.168-37.504-90.496v-341.333c0-35.328 14.379-67.413 37.504-90.496s55.168-37.504 90.496-37.504h597.333c35.328 0 67.413 14.379 90.496 37.504s37.504 55.168 37.504 90.496v341.333c0 35.328-14.379 67.413-37.504 90.496s-55.168 37.504-90.496 37.504zM128 640h597.333c11.776 0 22.4-4.736 30.165-12.501s12.501-18.389 12.501-30.165v-341.333c0-11.776-4.736-22.4-12.501-30.165s-18.389-12.501-30.165-12.501h-597.333c-11.776 0-22.4 4.736-30.165 12.501s-12.501 18.389-12.501 30.165v341.333c0 11.776 4.736 22.4 12.501 30.165s18.389 12.501 30.165 12.501zM1024 384v85.333c0 23.552-19.115 42.667-42.667 42.667s-42.667-19.115-42.667-42.667v-85.333c0-23.552 19.115-42.667 42.667-42.667s42.667 19.115 42.667 42.667z" />
<glyph unicode="&#xe93e;" glyph-name="battery-charging" d="M213.333 213.334h-85.333c-11.776 0-22.4 4.736-30.165 12.501s-12.501 18.389-12.501 30.165v341.333c0 11.776 4.736 22.4 12.501 30.165s18.389 12.501 30.165 12.501h136.107c23.552 0 42.667 19.115 42.667 42.667s-19.115 42.667-42.667 42.667h-136.107c-35.328 0-67.413-14.379-90.496-37.504s-37.504-55.168-37.504-90.496v-341.333c0-35.328 14.379-67.413 37.504-90.496s55.168-37.504 90.496-37.504h85.333c23.552 0 42.667 19.115 42.667 42.667s-19.115 42.667-42.667 42.667zM640 640h85.333c11.776 0 22.4-4.736 30.165-12.501s12.501-18.389 12.501-30.165v-341.333c0-11.776-4.736-22.4-12.501-30.165s-18.389-12.501-30.165-12.501h-136.107c-23.552 0-42.667-19.115-42.667-42.667s19.115-42.667 42.667-42.667h136.107c35.328 0 67.413 14.379 90.496 37.504s37.504 55.168 37.504 90.496v341.333c0 35.328-14.379 67.413-37.504 90.496s-55.168 37.504-90.496 37.504h-85.333c-23.552 0-42.667-19.115-42.667-42.667s19.115-42.667 42.667-42.667zM1024 384v85.333c0 23.552-19.115 42.667-42.667 42.667s-42.667-19.115-42.667-42.667v-85.333c0-23.552 19.115-42.667 42.667-42.667s42.667 19.115 42.667 42.667zM433.835 706.347l-170.667-256c-13.056-19.627-7.765-46.080 11.819-59.179 7.339-4.907 15.659-7.211 23.68-7.168h176.256l-126.464-189.653c-13.056-19.627-7.765-46.080 11.819-59.179s46.080-7.765 59.179 11.819l170.667 256c4.523 6.656 7.211 14.848 7.211 23.68 0 23.552-19.115 42.667-42.667 42.667h-176.256l126.464 189.653c13.056 19.627 7.765 46.080-11.819 59.179s-46.080 7.765-59.179-11.819z" />
<glyph unicode="&#xe93f;" glyph-name="bell" d="M725.333 597.334c0-171.136 40.405-278.187 78.976-341.333h-584.619c38.571 63.147 78.976 170.197 78.976 341.333 0 58.923 23.851 112.213 62.464 150.869s91.947 62.464 150.869 62.464 112.213-23.851 150.869-62.464 62.464-91.947 62.464-150.869zM810.667 597.334c0 82.475-33.493 157.184-87.467 211.2s-128.725 87.467-211.2 87.467-157.184-33.493-211.2-87.467-87.467-128.725-87.467-211.2c0-261.419-102.101-343.339-109.355-348.757-19.328-13.141-24.448-39.424-11.477-58.923 8.192-12.245 21.589-18.901 35.499-18.987h768c23.552 0 42.667 19.115 42.667 42.667 0 14.464-7.168 27.221-18.304 35.029-7.509 5.547-109.696 87.467-109.696 348.971zM548.907 64.086c-5.931-10.197-15.317-17.024-25.941-19.84s-22.187-1.579-32.384 4.309c-6.912 4.011-12.075 9.472-15.317 15.232-11.691 20.48-37.717 27.605-58.197 15.915s-27.605-37.717-15.915-58.197c10.667-18.731 26.581-35.115 46.635-46.763 30.549-17.749 65.493-21.376 97.109-12.971s60.117 28.928 77.824 59.477c11.819 20.395 4.864 46.507-15.488 58.325s-46.507 4.864-58.325-15.488z" />
<glyph unicode="&#xe940;" glyph-name="bell-off" d="M548.907 64.086c-5.931-10.197-15.317-17.024-25.941-19.84s-22.187-1.579-32.384 4.309c-6.912 4.011-12.075 9.472-15.317 15.232-11.691 20.48-37.717 27.605-58.197 15.915s-27.605-37.717-15.915-58.197c10.667-18.731 26.581-35.115 46.635-46.763 30.549-17.749 65.493-21.376 97.109-12.971s60.117 28.928 77.824 59.477c11.819 20.395 4.864 46.507-15.488 58.325s-46.507 4.864-58.325-15.488zM810.667 598.315c-0.171 82.048-33.451 156.416-87.168 210.261-53.931 54.101-128.597 87.68-211.072 87.808-61.781 0.085-119.424-18.645-166.4-50.347-19.499-13.184-24.661-39.723-11.477-59.264s39.723-24.661 59.264-11.477c32.597 22.016 72.875 35.371 116.48 35.712 61.781-0.469 114.517-24.277 152.789-62.72 38.485-38.613 62.208-91.733 62.251-150.443-1.792-70.741 7.381-148.309 28.373-225.152 6.229-22.741 29.653-36.139 52.395-29.909s36.139 29.653 29.909 52.395c-18.901 69.333-26.965 138.667-25.344 200.875 0 0.213 0 0.469 0 0.683 0 0.128 0 0.256 0 0.384zM298.496 579.798l323.84-323.797h-402.645c37.205 60.928 76.075 162.645 78.805 323.797zM12.501 865.835l207.189-207.189c-4.523-21.035-6.613-41.984-6.357-61.867 0-260.864-102.101-342.784-109.355-348.203-19.328-13.141-24.448-39.424-11.477-58.923 8.192-12.245 21.589-18.901 35.499-18.987h579.669l243.499-243.499c16.683-16.683 43.691-16.683 60.331 0s16.683 43.691 0 60.331l-938.667 938.667c-16.683 16.683-43.691 16.683-60.331 0s-16.683-43.691 0-60.331z" />
<glyph unicode="&#xe941;" glyph-name="bluetooth" d="M554.667 529.664v263.339l131.669-131.669zM554.667 323.67l131.669-131.669-131.669-131.669zM247.168 631.168l204.501-204.501-204.501-204.501c-16.683-16.683-16.683-43.691 0-60.331s43.691-16.683 60.331 0l161.835 161.835v-366.336c0-10.923 4.181-21.845 12.501-30.165 16.683-16.683 43.691-16.683 60.331 0l234.667 234.667c16.683 16.683 16.683 43.691 0 60.331l-204.501 204.501 204.501 204.501c16.683 16.683 16.683 43.691 0 60.331l-234.667 234.667c-7.723 7.723-18.389 12.501-30.165 12.501-23.552 0-42.667-19.115-42.667-42.667v-366.336l-161.835 161.835c-16.683 16.683-43.691 16.683-60.331 0s-16.683-43.691 0-60.331z" />
<glyph unicode="&#xe942;" glyph-name="bold" d="M298.667 469.334v256h298.667c35.371 0 67.285-14.293 90.496-37.504s37.504-55.125 37.504-90.496-14.293-67.285-37.504-90.496-55.125-37.504-90.496-37.504zM213.333 426.667v-341.333c0-23.552 19.115-42.667 42.667-42.667h384c58.88 0 112.299 23.936 150.869 62.464s62.464 91.989 62.464 150.869-23.936 112.299-62.464 150.869c-13.867 13.867-29.653 25.856-46.933 35.499 1.451 1.365 2.859 2.731 4.267 4.139 38.528 38.528 62.464 91.947 62.464 150.827s-23.936 112.299-62.464 150.869-91.989 62.464-150.869 62.464h-341.333c-23.552 0-42.667-19.115-42.667-42.667zM298.667 384h341.333c35.371 0 67.285-14.293 90.496-37.504s37.504-55.125 37.504-90.496-14.293-67.285-37.504-90.496-55.125-37.504-90.496-37.504h-341.333z" />
<glyph unicode="&#xe943;" glyph-name="book" d="M277.333 896c-41.216 0-78.635-16.768-105.6-43.733s-43.733-64.384-43.733-105.6v-640c0-41.216 16.768-78.635 43.733-105.6s64.384-43.733 105.6-43.733h576c23.552 0 42.667 19.115 42.667 42.667v853.333c0 23.552-19.115 42.667-42.667 42.667zM810.667 170.667v-128h-533.333c-17.664 0-33.621 7.125-45.269 18.731s-18.731 27.605-18.731 45.269 7.125 33.621 18.731 45.269 27.605 18.731 45.269 18.731zM277.333 810.667h533.333v-554.667h-533.333c-22.912 0-44.587-5.163-64-14.379v505.045c0 17.664 7.125 33.621 18.731 45.269s27.605 18.731 45.269 18.731z" />
<glyph unicode="&#xe944;" glyph-name="book-open" d="M896 768v-554.667h-256c-31.061 0-60.245-8.32-85.333-22.827v449.493c0 35.371 14.293 67.285 37.504 90.496s55.125 37.504 90.496 37.504zM469.333 190.507c-25.088 14.507-54.272 22.827-85.333 22.827h-256v554.667h213.333c35.371 0 67.285-14.293 90.496-37.504s37.504-55.125 37.504-90.496zM938.667 853.334h-256c-58.88 0-112.299-23.936-150.869-62.464-7.125-7.125-13.739-14.763-19.797-22.869-6.059 8.107-12.672 15.744-19.797 22.869-38.571 38.528-91.989 62.464-150.869 62.464h-256c-23.552 0-42.667-19.115-42.667-42.667v-640c0-23.552 19.115-42.667 42.667-42.667h298.667c23.595 0 44.843-9.515 60.331-25.003s25.003-36.736 25.003-60.331c0-23.552 19.115-42.667 42.667-42.667s42.667 19.115 42.667 42.667c0 23.595 9.515 44.843 25.003 60.331s36.736 25.003 60.331 25.003h298.667c23.552 0 42.667 19.115 42.667 42.667v640c0 23.552-19.115 42.667-42.667 42.667z" />
<glyph unicode="&#xe945;" glyph-name="bookmark" d="M785.877 7.936c6.869-4.949 15.488-7.936 24.789-7.936 23.552 0 42.667 19.115 42.667 42.667v682.667c0 35.328-14.379 67.413-37.504 90.496s-55.168 37.504-90.496 37.504h-426.667c-35.328 0-67.413-14.379-90.496-37.504s-37.504-55.168-37.504-90.496v-682.667c-0.043-8.491 2.56-17.237 7.936-24.789 13.696-19.157 40.363-23.637 59.52-9.899l273.877 195.584zM768 125.568l-231.211 165.163c-15.147 10.837-34.944 10.325-49.579 0l-231.211-165.163v599.765c0 11.776 4.736 22.4 12.501 30.165s18.389 12.501 30.165 12.501h426.667c11.776 0 22.4-4.736 30.165-12.501s12.501-18.389 12.501-30.165z" />
<glyph unicode="&#xe946;" glyph-name="box" d="M809.003 647.339l-297.003-171.819-297.003 171.819 275.456 157.397c4.779 2.731 9.899 4.48 15.147 5.291 9.301 1.451 18.987-0.128 27.904-5.291zM491.776-41.002c6.016-3.243 12.928-5.077 20.224-5.077 7.381 0 14.336 1.877 20.395 5.163 15.189 2.475 29.909 7.68 43.392 15.36l298.709 170.709c26.368 15.232 45.227 38.272 55.424 64.597 5.675 14.592 8.619 30.165 8.747 46.251v341.333c0 20.395-4.821 39.723-13.397 56.917-0.939 3.029-2.219 5.973-3.883 8.832-1.963 3.371-4.267 6.357-6.912 8.96-1.323 1.835-2.731 3.669-4.139 5.419-9.813 12.203-21.845 22.528-35.456 30.507l-299.051 170.88c-26.027 15.019-55.467 19.84-83.371 15.531-15.488-2.432-30.507-7.637-44.245-15.488l-298.709-170.709c-16.341-9.429-29.824-21.888-40.149-36.267-2.56-2.56-4.864-5.547-6.784-8.832-1.664-2.901-2.987-5.888-3.925-8.96-1.707-3.413-3.243-6.955-4.608-10.496-5.632-14.635-8.576-30.208-8.704-45.995v-341.632c0.043-30.293 10.581-58.155 28.331-80.128 9.813-12.203 21.845-22.528 35.456-30.507l299.051-170.88c13.824-7.979 28.587-13.099 43.605-15.445zM469.333 401.622v-340.949l-277.12 158.336c-4.736 2.773-8.832 6.315-12.16 10.453-5.931 7.339-9.387 16.469-9.387 26.539v318.379zM554.667 60.672v340.949l298.667 172.757v-318.379c-0.043-5.163-1.067-10.496-2.987-15.445-3.413-8.789-9.6-16.384-18.176-21.333z" />
<glyph unicode="&#xe947;" glyph-name="briefcase" d="M384 682.667v42.667c0 11.776 4.736 22.4 12.501 30.165s18.389 12.501 30.165 12.501h170.667c11.776 0 22.4-4.736 30.165-12.501s12.501-18.389 12.501-30.165v-42.667zM384 85.334v512h256v-512zM298.667 597.334v-512h-128c-11.776 0-22.4 4.736-30.165 12.501s-12.501 18.389-12.501 30.165v426.667c0 11.776 4.736 22.4 12.501 30.165s18.389 12.501 30.165 12.501zM725.333 682.667v42.667c0 35.328-14.379 67.413-37.504 90.496s-55.168 37.504-90.496 37.504h-170.667c-35.328 0-67.413-14.379-90.496-37.504s-37.504-55.168-37.504-90.496v-42.667h-128c-35.328 0-67.413-14.379-90.496-37.504s-37.504-55.168-37.504-90.496v-426.667c0-35.328 14.379-67.413 37.504-90.496s55.168-37.504 90.496-37.504h682.667c35.328 0 67.413 14.379 90.496 37.504s37.504 55.168 37.504 90.496v426.667c0 35.328-14.379 67.413-37.504 90.496s-55.168 37.504-90.496 37.504zM725.333 85.334v512h128c11.776 0 22.4-4.736 30.165-12.501s12.501-18.389 12.501-30.165v-426.667c0-11.776-4.736-22.4-12.501-30.165s-18.389-12.501-30.165-12.501z" />
<glyph unicode="&#xe948;" glyph-name="calendar" d="M298.667 853.334v-42.667h-85.333c-35.328 0-67.413-14.379-90.496-37.504s-37.504-55.168-37.504-90.496v-597.333c0-35.328 14.379-67.413 37.504-90.496s55.168-37.504 90.496-37.504h597.333c35.328 0 67.413 14.379 90.496 37.504s37.504 55.168 37.504 90.496v597.333c0 35.328-14.379 67.413-37.504 90.496s-55.168 37.504-90.496 37.504h-85.333v42.667c0 23.552-19.115 42.667-42.667 42.667s-42.667-19.115-42.667-42.667v-42.667h-256v42.667c0 23.552-19.115 42.667-42.667 42.667s-42.667-19.115-42.667-42.667zM853.333 554.667h-682.667v128c0 11.776 4.736 22.4 12.501 30.165s18.389 12.501 30.165 12.501h85.333v-42.667c0-23.552 19.115-42.667 42.667-42.667s42.667 19.115 42.667 42.667v42.667h256v-42.667c0-23.552 19.115-42.667 42.667-42.667s42.667 19.115 42.667 42.667v42.667h85.333c11.776 0 22.4-4.736 30.165-12.501s12.501-18.389 12.501-30.165zM170.667 469.334h682.667v-384c0-11.776-4.736-22.4-12.501-30.165s-18.389-12.501-30.165-12.501h-597.333c-11.776 0-22.4 4.736-30.165 12.501s-12.501 18.389-12.501 30.165z" />
<glyph unicode="&#xe949;" glyph-name="camera" d="M1024 128v469.333c0 35.328-14.379 67.413-37.504 90.496s-55.168 37.504-90.496 37.504h-147.84l-72.661 109.013c-7.765 11.52-20.736 18.987-35.499 18.987h-256c-13.909-0.085-27.307-6.741-35.499-18.987l-72.661-109.013h-147.84c-35.328 0-67.413-14.379-90.496-37.504s-37.504-55.168-37.504-90.496v-469.333c0-35.328 14.379-67.413 37.504-90.496s55.168-37.504 90.496-37.504h768c35.328 0 67.413 14.379 90.496 37.504s37.504 55.168 37.504 90.496zM938.667 128c0-11.776-4.736-22.4-12.501-30.165s-18.389-12.501-30.165-12.501h-768c-11.776 0-22.4 4.736-30.165 12.501s-12.501 18.389-12.501 30.165v469.333c0 11.776 4.736 22.4 12.501 30.165s18.389 12.501 30.165 12.501h170.667c14.763 0 27.733 7.467 35.499 18.987l72.661 109.013h210.347l72.661-109.013c8.192-12.245 21.589-18.901 35.499-18.987h170.667c11.776 0 22.4-4.736 30.165-12.501s12.501-18.389 12.501-30.165zM725.333 384c0 58.88-23.936 112.299-62.464 150.869s-91.989 62.464-150.869 62.464-112.299-23.936-150.869-62.464-62.464-91.989-62.464-150.869 23.936-112.299 62.464-150.869 91.989-62.464 150.869-62.464 112.299 23.936 150.869 62.464 62.464 91.989 62.464 150.869zM640 384c0-35.371-14.293-67.285-37.504-90.496s-55.125-37.504-90.496-37.504-67.285 14.293-90.496 37.504-37.504 55.125-37.504 90.496 14.293 67.285 37.504 90.496 55.125 37.504 90.496 37.504 67.285-14.293 90.496-37.504 37.504-55.125 37.504-90.496z" />
<glyph unicode="&#xe94a;" glyph-name="camera-off" d="M384 768h233.173l72.661-109.013c8.192-12.245 21.589-18.901 35.499-18.987h170.667c11.776 0 22.4-4.736 30.165-12.501s12.501-18.389 12.501-30.165v-398.507c0-23.552 19.115-42.667 42.667-42.667s42.667 19.115 42.667 42.667v398.507c0 35.328-14.379 67.413-37.504 90.496s-55.168 37.504-90.496 37.504h-147.84l-72.661 109.013c-7.765 11.52-20.736 18.987-35.499 18.987h-256c-23.552 0-42.667-19.115-42.667-42.667s19.115-42.667 42.667-42.667zM352.512 525.824c-6.229-6.955-12.075-14.379-17.451-22.272-33.28-48.597-43.648-106.197-33.621-159.787s40.619-103.509 89.216-136.747 106.197-43.648 159.787-33.621c37.845 7.083 73.813 24.405 103.424 51.072l139.136-139.136h-665.003c-11.776 0-22.4 4.736-30.165 12.501s-12.501 18.389-12.501 30.165v469.333c0 11.776 4.736 22.4 12.501 30.165s18.389 12.501 30.165 12.501h110.336zM444.288 554.752l-371.456 371.413c-16.683 16.683-43.691 16.683-60.331 0s-16.683-43.691 0-60.331l140.501-140.501h-25.003c-35.328 0-67.413-14.379-90.496-37.504s-37.504-55.168-37.504-90.496v-469.333c0-35.328 14.379-67.413 37.504-90.496s55.168-37.504 90.496-37.504h750.336l72.832-72.832c16.683-16.683 43.691-16.683 60.331 0s16.683 43.691 0 60.331l-566.101 566.101zM593.365 284.971c-17.067-14.336-37.333-23.68-58.667-27.691-32.256-6.059-66.688 0.213-95.872 20.181s-47.488 49.792-53.547 82.048 0.213 66.688 20.181 95.872c2.389 3.499 4.907 6.827 7.509 9.941z" />
<glyph unicode="&#xe94b;" glyph-name="cast" d="M76.8 209.92c40.021-8.149 73.771-29.611 97.792-59.136 17.28-21.205 29.568-46.635 35.371-74.283 4.864-23.040 27.477-37.803 50.56-32.939s37.803 27.477 32.939 50.56c-8.619 40.96-26.88 78.805-52.693 110.549-36.053 44.288-86.955 76.629-146.901 88.875-23.083 4.693-45.611-10.197-50.347-33.28s10.197-45.611 33.28-50.347zM80.597 382.123c85.376-9.515 159.744-49.621 213.589-108.629 47.744-52.309 79.317-119.424 87.936-193.109 2.731-23.424 23.936-40.149 47.317-37.419s40.149 23.936 37.419 47.317c-10.709 91.733-50.091 175.445-109.653 240.725-67.328 73.771-160.555 124.075-267.221 135.936-23.424 2.603-44.501-14.251-47.104-37.675s14.251-44.501 37.675-47.104zM128 597.334v85.333c0 11.776 4.736 22.4 12.501 30.165s18.389 12.501 30.165 12.501h682.667c11.776 0 22.4-4.736 30.165-12.501s12.501-18.389 12.501-30.165v-512c0-11.776-4.736-22.4-12.501-30.165s-18.389-12.501-30.165-12.501h-256c-23.552 0-42.667-19.115-42.667-42.667s19.115-42.667 42.667-42.667h256c35.328 0 67.413 14.379 90.496 37.504s37.504 55.168 37.504 90.496v512c0 35.328-14.379 67.413-37.504 90.496s-55.168 37.504-90.496 37.504h-682.667c-35.328 0-67.413-14.379-90.496-37.504s-37.504-55.168-37.504-90.496v-85.333c0-23.552 19.115-42.667 42.667-42.667s42.667 19.115 42.667 42.667zM85.333 42.667c23.552 0 42.667 19.115 42.667 42.667s-19.115 42.667-42.667 42.667-42.667-19.115-42.667-42.667 19.115-42.667 42.667-42.667z" />
<glyph unicode="&#xe94c;" glyph-name="check" d="M823.168 712.832l-439.168-439.168-183.168 183.168c-16.683 16.683-43.691 16.683-60.331 0s-16.683-43.691 0-60.331l213.333-213.333c16.683-16.683 43.691-16.683 60.331 0l469.333 469.333c16.683 16.683 16.683 43.691 0 60.331s-43.691 16.683-60.331 0z" />
<glyph unicode="&#xe94d;" glyph-name="check-circle" d="M896 465.92v-39.253c-0.043-106.027-43.051-201.941-112.64-271.445s-165.547-112.384-271.573-112.299-201.984 43.051-271.445 112.64-112.384 165.504-112.341 271.573 43.051 201.941 112.64 271.445 165.547 112.384 271.573 112.341c56.747-0.043 110.336-12.331 155.691-33.067 21.419-9.813 46.763-0.341 56.533 21.077s0.341 46.763-21.077 56.533c-56.619 25.856-122.283 40.747-191.104 40.789-129.579 0.085-246.997-52.437-331.947-137.259s-137.557-202.24-137.643-331.819 52.437-246.997 137.259-331.947 202.197-137.6 331.776-137.643 246.997 52.437 331.947 137.259 137.6 202.197 137.685 331.819v39.253c0 23.552-19.115 42.667-42.667 42.667s-42.667-19.115-42.667-42.667zM908.501 798.166l-396.501-396.885-97.835 97.792c-16.683 16.683-43.691 16.683-60.331 0s-16.683-43.691 0-60.331l128-128c16.683-16.683 43.691-16.64 60.373 0l426.667 427.093c16.64 16.683 16.64 43.691-0.043 60.331s-43.691 16.64-60.331-0.043z" />
<glyph unicode="&#xe94e;" glyph-name="check-square" d="M353.835 439.168l128-128c16.683-16.683 43.691-16.683 60.331 0l426.667 426.667c16.683 16.683 16.683 43.691 0 60.331s-43.691 16.683-60.331 0l-396.501-396.501-97.835 97.835c-16.683 16.683-43.691 16.683-60.331 0s-16.683-43.691 0-60.331zM853.333 426.667v-298.667c0-11.776-4.736-22.4-12.501-30.165s-18.389-12.501-30.165-12.501h-597.333c-11.776 0-22.4 4.736-30.165 12.501s-12.501 18.389-12.501 30.165v597.333c0 11.776 4.736 22.4 12.501 30.165s18.389 12.501 30.165 12.501h469.333c23.552 0 42.667 19.115 42.667 42.667s-19.115 42.667-42.667 42.667h-469.333c-35.328 0-67.413-14.379-90.496-37.504s-37.504-55.168-37.504-90.496v-597.333c0-35.328 14.379-67.413 37.504-90.496s55.168-37.504 90.496-37.504h597.333c35.328 0 67.413 14.379 90.496 37.504s37.504 55.168 37.504 90.496v298.667c0 23.552-19.115 42.667-42.667 42.667s-42.667-19.115-42.667-42.667z" />
<glyph unicode="&#xe94f;" glyph-name="chevron-down" d="M225.835 524.502l256-256c16.683-16.683 43.691-16.683 60.331 0l256 256c16.683 16.683 16.683 43.691 0 60.331s-43.691 16.683-60.331 0l-225.835-225.835-225.835 225.835c-16.683 16.683-43.691 16.683-60.331 0s-16.683-43.691 0-60.331z" />
<glyph unicode="&#xe950;" glyph-name="chevron-left" d="M670.165 200.832l-225.835 225.835 225.835 225.835c16.683 16.683 16.683 43.691 0 60.331s-43.691 16.683-60.331 0l-256-256c-16.683-16.683-16.683-43.691 0-60.331l256-256c16.683-16.683 43.691-16.683 60.331 0s16.683 43.691 0 60.331z" />
<glyph unicode="&#xe951;" glyph-name="chevron-right" d="M414.165 140.502l256 256c16.683 16.683 16.683 43.691 0 60.331l-256 256c-16.683 16.683-43.691 16.683-60.331 0s-16.683-43.691 0-60.331l225.835-225.835-225.835-225.835c-16.683-16.683-16.683-43.691 0-60.331s43.691-16.683 60.331 0z" />
<glyph unicode="&#xe952;" glyph-name="chevron-up" d="M798.165 328.832l-256 256c-16.683 16.683-43.691 16.683-60.331 0l-256-256c-16.683-16.683-16.683-43.691 0-60.331s43.691-16.683 60.331 0l225.835 225.835 225.835-225.835c16.683-16.683 43.691-16.683 60.331 0s16.683 43.691 0 60.331z" />
<glyph unicode="&#xe953;" glyph-name="chevrons-down" d="M268.501 353.835l213.333-213.333c16.683-16.683 43.691-16.683 60.331 0l213.333 213.333c16.683 16.683 16.683 43.691 0 60.331s-43.691 16.683-60.331 0l-183.168-183.168-183.168 183.168c-16.683 16.683-43.691 16.683-60.331 0s-16.683-43.691 0-60.331zM268.501 652.502l213.333-213.333c16.683-16.683 43.691-16.683 60.331 0l213.333 213.333c16.683 16.683 16.683 43.691 0 60.331s-43.691 16.683-60.331 0l-183.168-183.168-183.168 183.168c-16.683 16.683-43.691 16.683-60.331 0s-16.683-43.691 0-60.331z" />
<glyph unicode="&#xe954;" glyph-name="chevrons-left" d="M499.499 243.499l-183.168 183.168 183.168 183.168c16.683 16.683 16.683 43.691 0 60.331s-43.691 16.683-60.331 0l-213.333-213.333c-16.683-16.683-16.683-43.691 0-60.331l213.333-213.333c16.683-16.683 43.691-16.683 60.331 0s16.683 43.691 0 60.331zM798.165 243.499l-183.168 183.168 183.168 183.168c16.683 16.683 16.683 43.691 0 60.331s-43.691 16.683-60.331 0l-213.333-213.333c-16.683-16.683-16.683-43.691 0-60.331l213.333-213.333c16.683-16.683 43.691-16.683 60.331 0s16.683 43.691 0 60.331z" />
<glyph unicode="&#xe955;" glyph-name="chevrons-right" d="M584.832 183.168l213.333 213.333c16.683 16.683 16.683 43.691 0 60.331l-213.333 213.333c-16.683 16.683-43.691 16.683-60.331 0s-16.683-43.691 0-60.331l183.168-183.168-183.168-183.168c-16.683-16.683-16.683-43.691 0-60.331s43.691-16.683 60.331 0zM286.165 183.168l213.333 213.333c16.683 16.683 16.683 43.691 0 60.331l-213.333 213.333c-16.683 16.683-43.691 16.683-60.331 0s-16.683-43.691 0-60.331l183.168-183.168-183.168-183.168c-16.683-16.683-16.683-43.691 0-60.331s43.691-16.683 60.331 0z" />
<glyph unicode="&#xe956;" glyph-name="chevrons-up" d="M755.499 499.499l-213.333 213.333c-16.683 16.683-43.691 16.683-60.331 0l-213.333-213.333c-16.683-16.683-16.683-43.691 0-60.331s43.691-16.683 60.331 0l183.168 183.168 183.168-183.168c16.683-16.683 43.691-16.683 60.331 0s16.683 43.691 0 60.331zM755.499 200.832l-213.333 213.333c-16.683 16.683-43.691 16.683-60.331 0l-213.333-213.333c-16.683-16.683-16.683-43.691 0-60.331s43.691-16.683 60.331 0l183.168 183.168 183.168-183.168c16.683-16.683 43.691-16.683 60.331 0s16.683 43.691 0 60.331z" />
<glyph unicode="&#xe957;" glyph-name="chrome" d="M315.819 510.592l-95.744 165.589c6.485 7.595 13.312 14.933 20.395 22.016 69.547 69.547 165.461 112.469 271.531 112.469s201.984-42.923 271.531-112.469c17.749-17.749 33.792-37.248 47.829-58.197h-319.36c-58.88 0-112.299-23.936-150.869-62.464-19.072-19.072-34.56-41.728-45.355-66.944zM456.533-39.424c1.963-0.341 3.925-0.597 5.931-0.64 16.256-1.707 32.811-2.603 49.536-2.603 129.579 0 246.997 52.565 331.861 137.472s137.472 202.283 137.472 331.861c0 65.664-13.525 128.213-37.888 185.003-0.683 1.877-1.451 3.669-2.347 5.376-23.595 53.077-56.747 100.992-97.237 141.483-84.864 84.907-202.283 137.472-331.861 137.472s-246.997-52.565-331.861-137.472c-15.616-15.573-30.123-32.299-43.392-49.963-1.792-2.005-3.371-4.139-4.736-6.357-56.192-77.355-89.344-172.629-89.344-275.541 0-129.579 52.565-246.997 137.472-331.861 72.576-72.576 168.96-121.557 276.395-134.229zM537.387 214.827l-95.616-165.76c-77.867 14.379-147.499 52.267-201.301 106.069-69.547 69.547-112.469 165.461-112.469 271.531 0 61.013 14.208 118.699 39.552 169.899l155.435-268.885c10.069-19.2 22.997-36.651 38.144-51.84 38.571-38.571 91.989-62.507 150.869-62.507 8.576 0 17.067 0.512 25.387 1.493zM624.555 365.611c-0.64-0.939-1.28-1.963-1.877-2.944l-3.243-5.632c-4.907-7.509-10.581-14.507-16.896-20.864-23.253-23.211-55.168-37.504-90.539-37.504s-67.285 14.293-90.496 37.504c-7.083 7.083-13.312 14.976-18.603 23.509-0.469 1.024-1.024 2.005-1.579 2.987l-3.499 6.016c-8.832 17.408-13.824 37.12-13.824 57.984 0 35.371 14.293 67.285 37.504 90.496s55.125 37.504 90.496 37.504 67.285-14.293 90.496-37.504 37.504-55.125 37.504-90.496c0-22.101-5.589-42.923-15.445-61.056zM537.088 43.478l155.307 269.269c20.864 32.939 32.939 72.021 32.939 113.92 0 48-15.915 92.373-42.667 128h191.488c14.165-40.021 21.845-83.115 21.845-128 0-106.069-42.923-201.984-112.469-271.531-64-64-150.4-105.472-246.443-111.659z" />
<glyph unicode="&#xe958;" glyph-name="circle" d="M981.333 426.667c0 129.579-52.565 246.997-137.472 331.861s-202.283 137.472-331.861 137.472-246.997-52.565-331.861-137.472-137.472-202.283-137.472-331.861 52.565-246.997 137.472-331.861 202.283-137.472 331.861-137.472 246.997 52.565 331.861 137.472 137.472 202.283 137.472 331.861zM896 426.667c0-106.069-42.923-201.984-112.469-271.531s-165.461-112.469-271.531-112.469-201.984 42.923-271.531 112.469-112.469 165.461-112.469 271.531 42.923 201.984 112.469 271.531 165.461 112.469 271.531 112.469 201.984-42.923 271.531-112.469 112.469-165.461 112.469-271.531z" />
<glyph unicode="&#xe959;" glyph-name="clipboard" d="M298.667 725.334c0-23.552 9.6-44.928 25.003-60.331s36.779-25.003 60.331-25.003h256c23.552 0 44.928 9.6 60.331 25.003s25.003 36.779 25.003 60.331h42.667c11.776 0 22.4-4.736 30.165-12.501s12.501-18.389 12.501-30.165v-597.333c0-11.776-4.736-22.4-12.501-30.165s-18.389-12.501-30.165-12.501h-512c-11.776 0-22.4 4.736-30.165 12.501s-12.501 18.389-12.501 30.165v597.333c0 11.776 4.736 22.4 12.501 30.165s18.389 12.501 30.165 12.501zM384 896c-23.552 0-44.928-9.6-60.331-25.003s-25.003-36.779-25.003-60.331h-42.667c-35.328 0-67.413-14.379-90.496-37.504s-37.504-55.168-37.504-90.496v-597.333c0-35.328 14.379-67.413 37.504-90.496s55.168-37.504 90.496-37.504h512c35.328 0 67.413 14.379 90.496 37.504s37.504 55.168 37.504 90.496v597.333c0 35.328-14.379 67.413-37.504 90.496s-55.168 37.504-90.496 37.504h-42.667c0 23.552-9.6 44.928-25.003 60.331s-36.779 25.003-60.331 25.003zM384 810.667h256v-85.333h-256z" />
<glyph unicode="&#xe95a;" glyph-name="clock" d="M981.333 426.667c0 129.579-52.565 246.997-137.472 331.861s-202.283 137.472-331.861 137.472-246.997-52.565-331.861-137.472-137.472-202.283-137.472-331.861 52.565-246.997 137.472-331.861 202.283-137.472 331.861-137.472 246.997 52.565 331.861 137.472 137.472 202.283 137.472 331.861zM896 426.667c0-106.069-42.923-201.984-112.469-271.531s-165.461-112.469-271.531-112.469-201.984 42.923-271.531 112.469-112.469 165.461-112.469 271.531 42.923 201.984 112.469 271.531 165.461 112.469 271.531 112.469 201.984-42.923 271.531-112.469 112.469-165.461 112.469-271.531zM469.333 682.667v-256c0-16.597 9.472-31.019 23.595-38.144l170.667-85.333c21.077-10.539 46.72-2.005 57.259 19.072s2.005 46.72-19.072 57.259l-147.115 73.515v229.632c0 23.552-19.115 42.667-42.667 42.667s-42.667-19.115-42.667-42.667z" />
<glyph unicode="&#xe95b;" glyph-name="cloud" d="M768 469.334c47.147 0 89.728-19.072 120.661-50.005s50.005-73.515 50.005-120.661-19.072-89.728-50.005-120.661-73.515-50.005-120.661-50.005h-383.787c-62.421 0.341-121.728 19.669-170.88 53.675-56.917 39.339-100.181 98.304-118.784 170.325-20.608 79.872-6.955 160.469 31.915 226.347s102.741 116.864 182.613 137.515 160.469 6.955 226.347-31.915 116.864-102.741 137.515-182.613c4.907-18.56 21.547-32 41.301-32zM768 554.667h-22.187c-30.933 87.765-91.435 158.208-167.040 202.795-84.608 49.877-188.373 67.541-291.029 41.003s-184.917-92.16-234.795-176.768-67.499-188.373-41.003-291.029c23.893-92.544 79.659-168.576 152.875-219.179 63.061-43.648 139.136-68.395 218.965-68.821h384.213c70.699 0 134.741 28.715 181.035 74.965s74.965 110.336 74.965 181.035-28.715 134.741-74.965 181.035-110.336 74.965-181.035 74.965z" />
<glyph unicode="&#xe95c;" glyph-name="cloud-drizzle" d="M298.667 128v-85.333c0-23.552 19.115-42.667 42.667-42.667s42.667 19.115 42.667 42.667v85.333c0 23.552-19.115 42.667-42.667 42.667s-42.667-19.115-42.667-42.667zM298.667 384v-85.333c0-23.552 19.115-42.667 42.667-42.667s42.667 19.115 42.667 42.667v85.333c0 23.552-19.115 42.667-42.667 42.667s-42.667-19.115-42.667-42.667zM640 128v-85.333c0-23.552 19.115-42.667 42.667-42.667s42.667 19.115 42.667 42.667v85.333c0 23.552-19.115 42.667-42.667 42.667s-42.667-19.115-42.667-42.667zM640 384v-85.333c0-23.552 19.115-42.667 42.667-42.667s42.667 19.115 42.667 42.667v85.333c0 23.552-19.115 42.667-42.667 42.667s-42.667-19.115-42.667-42.667zM469.333 42.667v-85.333c0-23.552 19.115-42.667 42.667-42.667s42.667 19.115 42.667 42.667v85.333c0 23.552-19.115 42.667-42.667 42.667s-42.667-19.115-42.667-42.667zM469.333 298.667v-85.333c0-23.552 19.115-42.667 42.667-42.667s42.667 19.115 42.667 42.667v85.333c0 23.552-19.115 42.667-42.667 42.667s-42.667-19.115-42.667-42.667zM870.443 192.171c64.725 28.373 111.915 80.341 135.723 141.312s24.405 131.157-3.925 195.883c-24.491 55.936-66.688 98.816-117.419 124.8-35.669 18.261-75.563 28.16-116.48 28.501h-22.528c-30.933 87.765-91.435 158.208-167.040 202.795-84.608 49.877-188.373 67.499-291.029 41.003s-184.917-92.203-234.795-176.811-67.499-188.373-41.003-291.029c21.717-84.053 69.717-154.581 132.224-204.075 18.475-14.635 45.312-11.52 59.947 6.955s11.52 45.312-6.955 59.947c-48.299 38.272-85.675 92.971-102.613 158.549-20.608 79.829-6.955 160.427 31.915 226.347s102.741 116.864 182.613 137.515 160.469 6.955 226.347-31.915 116.864-102.741 137.515-182.613c4.907-18.56 21.547-32 41.301-32h53.419c27.605-0.213 54.4-6.912 78.251-19.115 33.835-17.323 61.781-45.781 78.165-83.072 18.901-43.179 18.56-89.856 2.645-130.603s-47.317-75.307-90.496-94.208c-21.589-9.472-31.403-34.603-21.973-56.192s34.603-31.403 56.192-21.973z" />
<glyph unicode="&#xe95d;" glyph-name="cloud-lightning" d="M819.157 175.787c69.248 14.080 126.336 54.955 162.475 109.483s51.541 123.051 37.461 192.299c-12.928 63.616-48.469 116.992-96.725 153.259-43.435 32.725-97.237 51.627-154.197 51.84h-22.357c-30.933 87.765-91.435 158.208-167.040 202.795-84.608 49.877-188.373 67.499-291.029 41.003s-184.917-92.245-234.795-176.811-67.499-188.373-41.003-291.029c25.472-98.688 87.168-178.517 167.211-228.907 6.101-3.84 12.288-7.509 18.603-11.008 20.608-11.435 46.592-3.968 57.984 16.64s3.968 46.592-16.64 57.984c-4.907 2.731-9.771 5.589-14.507 8.576-62.379 39.296-110.208 101.291-130.048 178.048-20.608 79.872-6.955 160.469 31.872 226.347s102.741 116.864 182.613 137.515 160.469 6.955 226.347-31.872 116.864-102.741 137.515-182.613c4.949-18.56 21.589-32 41.344-32h53.589c38.229-0.171 74.24-12.8 103.253-34.645 32.171-24.192 55.765-59.605 64.384-102.059 9.387-46.208-0.811-91.733-24.96-128.213s-62.123-63.616-108.331-73.003c-23.083-4.693-38.016-27.221-33.323-50.304s27.221-38.016 50.304-33.323zM519.168 493.014l-170.667-256c-13.056-19.627-7.765-46.080 11.819-59.179 7.339-4.907 15.659-7.211 23.68-7.168h176.256l-126.464-189.653c-13.056-19.627-7.765-46.080 11.819-59.179s46.080-7.765 59.179 11.819l170.667 256c4.523 6.656 7.211 14.848 7.211 23.68 0 23.552-19.115 42.667-42.667 42.667h-176.256l126.464 189.653c13.056 19.627 7.765 46.080-11.819 59.179s-46.080 7.765-59.179-11.819z" />
<glyph unicode="&#xe95e;" glyph-name="cloud-off" d="M1003.989 198.827c27.563 65.067 26.112 135.253 1.536 195.925s-72.363 112.085-137.429 139.648c-33.109 13.995-67.755 20.608-100.565 20.267h-21.589c-26.453 75.947-75.136 139.093-137.003 183.851-55.381 40.021-121.344 65.323-191.445 71.979-23.467 2.219-44.288-14.976-46.507-38.443s14.976-44.288 38.443-46.507c54.869-5.205 106.368-25.003 149.547-56.192 54.741-39.595 96.085-97.536 113.963-167.851 4.779-18.645 21.461-32.171 41.301-32.171h54.229c20.907 0.213 43.947-4.011 66.347-13.525 43.392-18.389 75.221-52.565 91.648-93.099s17.365-87.211-1.024-130.603c-9.173-21.717 0.939-46.72 22.656-55.936s46.72 0.939 55.936 22.656zM207.104 671.232l543.232-543.232h-366.763c-40.96-0.427-81.195 7.339-118.357 22.485-61.056 24.875-113.877 69.76-148.096 131.627-39.893 72.192-46.805 153.643-25.643 227.157 18.432 64 58.027 121.771 115.584 162.005zM12.501 865.835l133.504-133.547c-67.456-51.2-114.176-121.856-136.533-199.467-27.179-94.379-18.347-199.253 32.981-292.053 43.947-79.488 112.043-137.344 190.549-169.344 47.659-19.371 99.157-29.269 151.424-28.757h383.573c20.864 0.043 41.259 2.56 60.459 7.211l122.709-122.709c16.683-16.683 43.691-16.683 60.331 0s16.683 43.691 0 60.331l-938.667 938.667c-16.683 16.683-43.691 16.683-60.331 0s-16.683-43.691 0-60.331z" />
<glyph unicode="&#xe95f;" glyph-name="cloud-rain" d="M640 384v-341.333c0-23.552 19.115-42.667 42.667-42.667s42.667 19.115 42.667 42.667v341.333c0 23.552-19.115 42.667-42.667 42.667s-42.667-19.115-42.667-42.667zM298.667 384v-341.333c0-23.552 19.115-42.667 42.667-42.667s42.667 19.115 42.667 42.667v341.333c0 23.552-19.115 42.667-42.667 42.667s-42.667-19.115-42.667-42.667zM469.333 298.667v-341.333c0-23.552 19.115-42.667 42.667-42.667s42.667 19.115 42.667 42.667v341.333c0 23.552-19.115 42.667-42.667 42.667s-42.667-19.115-42.667-42.667zM870.443 192.171c64.725 28.373 111.915 80.341 135.723 141.312s24.405 131.157-3.925 195.883c-24.491 55.936-66.688 98.816-117.419 124.8-35.669 18.261-75.563 28.16-116.48 28.501h-22.528c-30.933 87.765-91.435 158.208-167.040 202.795-84.608 49.877-188.373 67.499-291.029 41.003s-184.917-92.203-234.795-176.811-67.499-188.373-41.003-291.029c21.717-84.053 69.717-154.581 132.224-204.075 18.475-14.635 45.312-11.52 59.947 6.955s11.52 45.312-6.955 59.947c-48.299 38.272-85.675 92.971-102.613 158.549-20.608 79.829-6.955 160.427 31.915 226.347s102.741 116.864 182.613 137.515 160.469 6.955 226.347-31.915 116.864-102.741 137.515-182.613c4.907-18.56 21.547-32 41.301-32h53.419c27.605-0.213 54.4-6.912 78.251-19.115 33.835-17.323 61.781-45.781 78.165-83.072 18.901-43.179 18.56-89.856 2.645-130.603s-47.317-75.307-90.496-94.208c-21.589-9.472-31.403-34.603-21.973-56.192s34.603-31.403 56.192-21.973z" />
<glyph unicode="&#xe960;" glyph-name="cloud-snow" d="M870.443 149.504c64.725 28.373 111.915 80.341 135.723 141.312s24.405 131.157-3.925 195.883c-24.491 55.936-66.688 98.816-117.419 124.8-35.669 18.261-75.563 28.16-116.48 28.501h-22.528c-30.933 87.765-91.435 158.208-167.040 202.795-84.608 49.877-188.373 67.499-291.029 41.003s-184.917-92.203-234.795-176.811-67.499-188.373-41.003-291.029c21.717-84.053 69.717-154.581 132.224-204.075 18.475-14.635 45.312-11.52 59.947 6.955s11.52 45.312-6.955 59.947c-48.299 38.272-85.675 92.971-102.613 158.549-20.608 79.829-6.955 160.427 31.915 226.347s102.741 116.864 182.613 137.515 160.469 6.955 226.347-31.915 116.864-102.741 137.515-182.613c4.907-18.56 21.547-32 41.301-32h53.419c27.605-0.213 54.4-6.912 78.251-19.115 33.835-17.323 61.781-45.781 78.165-83.072 18.901-43.179 18.56-89.856 2.645-130.603s-47.317-75.307-90.496-94.208c-21.589-9.472-31.403-34.603-21.973-56.192s34.603-31.403 56.192-21.973zM341.333 213.334c23.552 0 42.667 19.115 42.667 42.667s-19.115 42.667-42.667 42.667-42.667-19.115-42.667-42.667 19.115-42.667 42.667-42.667zM341.333 42.667c23.552 0 42.667 19.115 42.667 42.667s-19.115 42.667-42.667 42.667-42.667-19.115-42.667-42.667 19.115-42.667 42.667-42.667zM512 128c23.552 0 42.667 19.115 42.667 42.667s-19.115 42.667-42.667 42.667-42.667-19.115-42.667-42.667 19.115-42.667 42.667-42.667zM512-42.666c23.552 0 42.667 19.115 42.667 42.667s-19.115 42.667-42.667 42.667-42.667-19.115-42.667-42.667 19.115-42.667 42.667-42.667zM682.667 213.334c23.552 0 42.667 19.115 42.667 42.667s-19.115 42.667-42.667 42.667-42.667-19.115-42.667-42.667 19.115-42.667 42.667-42.667zM682.667 42.667c23.552 0 42.667 19.115 42.667 42.667s-19.115 42.667-42.667 42.667-42.667-19.115-42.667-42.667 19.115-42.667 42.667-42.667z" />
<glyph unicode="&#xe961;" glyph-name="code" d="M712.832 140.502l256 256c16.683 16.683 16.683 43.691 0 60.331l-256 256c-16.683 16.683-43.691 16.683-60.331 0s-16.683-43.691 0-60.331l225.835-225.835-225.835-225.835c-16.683-16.683-16.683-43.691 0-60.331s43.691-16.683 60.331 0zM311.168 712.832l-256-256c-16.683-16.683-16.683-43.691 0-60.331l256-256c16.683-16.683 43.691-16.683 60.331 0s16.683 43.691 0 60.331l-225.835 225.835 225.835 225.835c16.683 16.683 16.683 43.691 0 60.331s-43.691 16.683-60.331 0z" />
<glyph unicode="&#xe962;" glyph-name="codepen" d="M224.256 426.667l-96.256-67.371v134.784zM896 359.296l-96.256 67.371 96.256 67.371zM725.333 374.571l137.045-95.957-307.712-199.979v176.512zM373.077 426.667l138.923 97.237 138.923-97.237-138.923-97.237zM161.621 278.656l137.045 95.915 170.667-119.467v-176.512zM535.765 888.79c-6.784 4.565-14.976 7.211-23.765 7.211s-16.981-2.645-23.765-7.211l-425.344-276.48c-4.779-2.987-9.088-6.955-12.501-11.861-5.333-7.595-7.851-16.341-7.723-24.96v-297.643c-0.085-7.851 1.963-15.787 6.315-22.869 1.749-2.901 3.883-5.589 6.357-8.021 2.005-2.005 4.267-3.797 6.741-5.419l0.811-0.512 425.344-276.48c6.784-4.565 14.976-7.211 23.765-7.211s16.981 2.645 23.765 7.211l425.344 276.48c4.779 2.944 9.088 6.912 12.501 11.819 5.333 7.595 7.808 16.341 7.723 25.003v297.643c0.085 7.851-1.963 15.787-6.315 22.869-1.749 2.859-3.883 5.589-6.357 8.021-2.005 2.005-4.267 3.797-6.741 5.419l-0.811 0.512zM554.667 598.23v176.469l307.712-200.021-137.045-95.915zM469.333 774.699v-176.512l-170.667-119.467-137.045 95.957z" />
<glyph unicode="&#xe963;" glyph-name="codesandbox" d="M616.149 757.547l-104.149-60.16-104.149 60.16 82.603 47.189c4.779 2.731 9.899 4.48 15.147 5.291 9.301 1.451 18.987-0.128 27.904-5.291zM170.667 352.726l106.667-61.611v-120.747l-85.12 48.64c-4.736 2.773-8.832 6.315-12.16 10.453-5.931 7.339-9.387 16.469-9.387 26.539zM746.667 170.368v120.747l106.667 61.611v-96.725c-0.043-5.163-1.067-10.496-2.987-15.445-3.413-8.789-9.6-16.384-18.176-21.333zM809.003 647.339l-297.003-171.819-297.003 171.819 107.093 61.227 168.576-97.408c13.611-7.851 29.739-7.381 42.709 0l168.533 97.365zM491.776-41.002c6.016-3.243 12.928-5.077 20.224-5.077 7.381 0 14.336 1.877 20.395 5.163 15.189 2.475 29.909 7.68 43.392 15.36l136.448 77.995c9.301 1.835 17.536 6.699 23.637 13.483l138.624 79.232c26.368 15.232 45.227 38.272 55.424 64.597 5.675 14.592 8.619 30.165 8.747 46.251v341.333c0 20.395-4.821 39.723-13.397 56.917-0.939 3.029-2.219 5.973-3.883 8.832-1.963 3.371-4.267 6.357-6.912 8.96-1.323 1.835-2.731 3.669-4.139 5.419-9.813 12.203-21.845 22.528-35.456 30.507l-139.008 79.403c-6.272 7.125-14.635 11.776-23.595 13.525l-136.405 77.952c-26.027 15.019-55.467 19.84-83.371 15.531-15.488-2.432-30.507-7.637-44.245-15.488l-136.533-77.995c-8.96-1.749-17.323-6.4-23.595-13.483l-138.624-79.232c-16.341-9.429-29.824-21.888-40.149-36.267-2.56-2.56-4.864-5.547-6.784-8.832-1.664-2.901-2.987-5.888-3.925-8.96-1.707-3.413-3.243-6.955-4.608-10.496-5.632-14.635-8.576-30.208-8.704-45.995v-341.632c0.043-30.293 10.581-58.155 28.331-80.128 9.813-12.203 21.845-22.528 35.456-30.507l139.008-79.445c6.059-6.827 14.293-11.691 23.637-13.483l136.405-77.952c13.824-7.979 28.587-13.099 43.605-15.445zM469.333 401.622v-340.949l-106.667 60.928v194.133c0 15.701-8.491 29.44-21.333 36.949l-170.667 98.603v123.093zM554.667 60.672v340.949l298.667 172.757v-123.093l-170.667-98.603c-13.611-7.851-21.248-22.059-21.333-36.949v-194.133z" />
<glyph unicode="&#xe964;" glyph-name="coffee" d="M810.667 298.667v256c35.371 0 67.285-14.293 90.496-37.504s37.504-55.125 37.504-90.496-14.293-67.285-37.504-90.496-55.125-37.504-90.496-37.504zM85.333 640c-23.552 0-42.667-19.115-42.667-42.667v-384c0-58.88 23.936-112.299 62.464-150.869s91.989-62.464 150.869-62.464h341.333c58.88 0 112.299 23.936 150.869 62.464s62.464 91.989 62.464 150.869c58.88 0 112.299 23.936 150.869 62.464s62.464 91.989 62.464 150.869-23.936 112.299-62.464 150.869-91.989 62.464-150.869 62.464h-42.667zM128 554.667h597.333v-341.333c0-35.371-14.293-67.285-37.504-90.496s-55.125-37.504-90.496-37.504h-341.333c-35.371 0-67.285 14.293-90.496 37.504s-37.504 55.125-37.504 90.496zM213.333 896v-128c0-23.552 19.115-42.667 42.667-42.667s42.667 19.115 42.667 42.667v128c0 23.552-19.115 42.667-42.667 42.667s-42.667-19.115-42.667-42.667zM384 896v-128c0-23.552 19.115-42.667 42.667-42.667s42.667 19.115 42.667 42.667v128c0 23.552-19.115 42.667-42.667 42.667s-42.667-19.115-42.667-42.667zM554.667 896v-128c0-23.552 19.115-42.667 42.667-42.667s42.667 19.115 42.667 42.667v128c0 23.552-19.115 42.667-42.667 42.667s-42.667-19.115-42.667-42.667z" />
<glyph unicode="&#xe965;" glyph-name="columns" d="M512 768h298.667c11.776 0 22.4-4.736 30.165-12.501s12.501-18.389 12.501-30.165v-597.333c0-11.776-4.736-22.4-12.501-30.165s-18.389-12.501-30.165-12.501h-298.667c-23.552 0-42.667-19.115-42.667-42.667s19.115-42.667 42.667-42.667h298.667c35.328 0 67.413 14.379 90.496 37.504s37.504 55.168 37.504 90.496v597.333c0 35.328-14.379 67.413-37.504 90.496s-55.168 37.504-90.496 37.504h-298.667c-23.552 0-42.667-19.115-42.667-42.667s19.115-42.667 42.667-42.667zM512 853.334h-298.667c-35.328 0-67.413-14.379-90.496-37.504s-37.504-55.168-37.504-90.496v-597.333c0-35.328 14.379-67.413 37.504-90.496s55.168-37.504 90.496-37.504h298.667c23.552 0 42.667 19.115 42.667 42.667s-19.115 42.667-42.667 42.667h-298.667c-11.776 0-22.4 4.736-30.165 12.501s-12.501 18.389-12.501 30.165v597.333c0 11.776 4.736 22.4 12.501 30.165s18.389 12.501 30.165 12.501h298.667c23.552 0 42.667 19.115 42.667 42.667s-19.115 42.667-42.667 42.667zM469.333 810.667v-768c0-23.552 19.115-42.667 42.667-42.667s42.667 19.115 42.667 42.667v768c0 23.552-19.115 42.667-42.667 42.667s-42.667-19.115-42.667-42.667z" />
<glyph unicode="&#xe966;" glyph-name="command" d="M682.667 256h85.333c23.595 0 44.843-9.515 60.331-25.003s25.003-36.736 25.003-60.331-9.515-44.843-25.003-60.331-36.736-25.003-60.331-25.003-44.843 9.515-60.331 25.003-25.003 36.736-25.003 60.331zM341.333 256v-85.333c0-23.595-9.515-44.843-25.003-60.331s-36.736-25.003-60.331-25.003-44.843 9.515-60.331 25.003-25.003 36.736-25.003 60.331 9.515 44.843 25.003 60.331 36.736 25.003 60.331 25.003zM341.333 597.334h-85.333c-23.595 0-44.843 9.515-60.331 25.003s-25.003 36.736-25.003 60.331 9.515 44.843 25.003 60.331 36.736 25.003 60.331 25.003 44.843-9.515 60.331-25.003 25.003-36.736 25.003-60.331zM682.667 597.334h-341.333v-341.333h341.333zM768 768c23.595 0 44.843-9.515 60.331-25.003s25.003-36.736 25.003-60.331-9.515-44.843-25.003-60.331-36.736-25.003-60.331-25.003h-85.333v85.333c0 23.595 9.515 44.843 25.003 60.331s36.736 25.003 60.331 25.003zM426.667 512v170.667c0 47.104-19.157 89.856-50.005 120.661s-73.557 50.005-120.661 50.005-89.856-19.157-120.661-50.005-50.005-73.557-50.005-120.661 19.157-89.856 50.005-120.661 73.557-50.005 120.661-50.005zM426.667 341.334h-170.667c-47.104 0-89.856-19.157-120.661-50.005s-50.005-73.557-50.005-120.661 19.157-89.856 50.005-120.661 73.557-50.005 120.661-50.005 89.856 19.157 120.661 50.005 50.005 73.557 50.005 120.661zM597.333 341.334v-170.667c0-47.104 19.157-89.856 50.005-120.661s73.557-50.005 120.661-50.005 89.856 19.157 120.661 50.005 50.005 73.557 50.005 120.661-19.157 89.856-50.005 120.661-73.557 50.005-120.661 50.005zM597.333 512v-170.667h-170.667v170.667zM768 853.334c-47.104 0-89.856-19.157-120.661-50.005s-50.005-73.557-50.005-120.661v-170.667h170.667c47.104 0 89.856 19.157 120.661 50.005s50.005 73.557 50.005 120.661-19.157 89.856-50.005 120.661-73.557 50.005-120.661 50.005z" />
<glyph unicode="&#xe967;" glyph-name="compass" d="M981.333 426.667c0 129.579-52.565 246.997-137.472 331.861s-202.283 137.472-331.861 137.472-246.997-52.565-331.861-137.472-137.472-202.283-137.472-331.861 52.565-246.997 137.472-331.861 202.283-137.472 331.861-137.472 246.997 52.565 331.861 137.472 137.472 202.283 137.472 331.861zM896 426.667c0-106.069-42.923-201.984-112.469-271.531s-165.461-112.469-271.531-112.469-201.984 42.923-271.531 112.469-112.469 165.461-112.469 271.531 42.923 201.984 112.469 271.531 165.461 112.469 271.531 112.469 201.984-42.923 271.531-112.469 112.469-165.461 112.469-271.531zM733.397 594.091c2.816 8.363 3.072 17.835 0 26.965-7.467 22.357-31.616 34.432-53.973 26.965l-271.36-90.453c-12.373-4.181-22.571-13.781-26.965-26.965l-90.453-271.36c-2.816-8.363-3.072-17.835 0-26.965 7.467-22.357 31.616-34.432 53.973-26.965l271.36 90.453c12.373 4.181 22.571 13.781 26.965 26.965zM625.451 540.118l-56.747-170.155-170.155-56.747 56.704 170.155z" />
<glyph unicode="&#xe968;" glyph-name="copy" d="M469.333 597.334c-35.328 0-67.413-14.379-90.496-37.504s-37.504-55.168-37.504-90.496v-384c0-35.328 14.379-67.413 37.504-90.496s55.168-37.504 90.496-37.504h384c35.328 0 67.413 14.379 90.496 37.504s37.504 55.168 37.504 90.496v384c0 35.328-14.379 67.413-37.504 90.496s-55.168 37.504-90.496 37.504zM469.333 512h384c11.776 0 22.4-4.736 30.165-12.501s12.501-18.389 12.501-30.165v-384c0-11.776-4.736-22.4-12.501-30.165s-18.389-12.501-30.165-12.501h-384c-11.776 0-22.4 4.736-30.165 12.501s-12.501 18.389-12.501 30.165v384c0 11.776 4.736 22.4 12.501 30.165s18.389 12.501 30.165 12.501zM213.333 341.334h-42.667c-11.776 0-22.4 4.736-30.165 12.501s-12.501 18.389-12.501 30.165v384c0 11.776 4.736 22.4 12.501 30.165s18.389 12.501 30.165 12.501h384c11.776 0 22.4-4.736 30.165-12.501s12.501-18.389 12.501-30.165v-42.667c0-23.552 19.115-42.667 42.667-42.667s42.667 19.115 42.667 42.667v42.667c0 35.328-14.379 67.413-37.504 90.496s-55.168 37.504-90.496 37.504h-384c-35.328 0-67.413-14.379-90.496-37.504s-37.504-55.168-37.504-90.496v-384c0-35.328 14.379-67.413 37.504-90.496s55.168-37.504 90.496-37.504h42.667c23.552 0 42.667 19.115 42.667 42.667s-19.115 42.667-42.667 42.667z" />
<glyph unicode="&#xe969;" glyph-name="corner-down-left" d="M810.667 768v-298.667c0-35.371-14.293-67.285-37.504-90.496s-55.125-37.504-90.496-37.504h-409.003l140.501 140.501c16.683 16.683 16.683 43.691 0 60.331s-43.691 16.683-60.331 0l-213.333-213.333c-3.925-3.925-7.083-8.619-9.259-13.824-6.4-15.445-3.328-33.92 9.259-46.507l213.333-213.333c16.683-16.683 43.691-16.683 60.331 0s16.683 43.691 0 60.331l-140.501 140.501h409.003c58.88 0 112.299 23.936 150.869 62.464s62.464 91.989 62.464 150.869v298.667c0 23.552-19.115 42.667-42.667 42.667s-42.667-19.115-42.667-42.667z" />
<glyph unicode="&#xe96a;" glyph-name="corner-down-right" d="M128 768v-298.667c0-58.88 23.936-112.299 62.464-150.869s91.989-62.464 150.869-62.464h409.003l-140.501-140.501c-16.683-16.683-16.683-43.691 0-60.331s43.691-16.683 60.331 0l213.333 213.333c3.925 3.925 7.083 8.619 9.259 13.824 6.4 15.445 3.328 33.92-9.259 46.507l-213.333 213.333c-16.683 16.683-43.691 16.683-60.331 0s-16.683-43.691 0-60.331l140.501-140.501h-409.003c-35.371 0-67.285 14.293-90.496 37.504s-37.504 55.125-37.504 90.496v298.667c0 23.552-19.115 42.667-42.667 42.667s-42.667-19.115-42.667-42.667z" />
<glyph unicode="&#xe96b;" glyph-name="corner-left-down" d="M853.333 810.667h-298.667c-58.88 0-112.299-23.936-150.869-62.464s-62.464-91.989-62.464-150.869v-409.003l-140.501 140.501c-16.683 16.683-43.691 16.683-60.331 0s-16.683-43.691 0-60.331l213.333-213.333c3.925-3.925 8.619-7.083 13.824-9.259 10.453-4.309 22.229-4.309 32.683 0 5.035 2.091 9.728 5.163 13.824 9.259l213.333 213.333c16.683 16.683 16.683 43.691 0 60.331s-43.691 16.683-60.331 0l-140.501-140.501v409.003c0 35.371 14.293 67.285 37.504 90.496s55.125 37.504 90.496 37.504h298.667c23.552 0 42.667 19.115 42.667 42.667s-19.115 42.667-42.667 42.667z" />
<glyph unicode="&#xe96c;" glyph-name="corner-left-up" d="M853.333 128h-298.667c-35.371 0-67.285 14.293-90.496 37.504s-37.504 55.125-37.504 90.496v409.003l140.501-140.501c16.683-16.683 43.691-16.683 60.331 0s16.683 43.691 0 60.331l-213.333 213.333c-4.096 4.096-8.789 7.168-13.824 9.259s-10.539 3.243-16.341 3.243-11.307-1.152-16.341-3.243c-5.035-2.091-9.728-5.163-13.824-9.259l-213.333-213.333c-16.683-16.683-16.683-43.691 0-60.331s43.691-16.683 60.331 0l140.501 140.501v-409.003c0-58.88 23.936-112.299 62.464-150.869s91.989-62.464 150.869-62.464h298.667c23.552 0 42.667 19.115 42.667 42.667s-19.115 42.667-42.667 42.667z" />
<glyph unicode="&#xe96d;" glyph-name="corner-right-down" d="M170.667 725.334h298.667c35.371 0 67.285-14.293 90.496-37.504s37.504-55.125 37.504-90.496v-409.003l-140.501 140.501c-16.683 16.683-43.691 16.683-60.331 0s-16.683-43.691 0-60.331l213.333-213.333c3.925-3.925 8.619-7.083 13.824-9.259 10.453-4.309 22.229-4.309 32.683 0 5.035 2.091 9.728 5.163 13.824 9.259l213.333 213.333c16.683 16.683 16.683 43.691 0 60.331s-43.691 16.683-60.331 0l-140.501-140.501v409.003c0 58.88-23.936 112.299-62.464 150.869s-91.989 62.464-150.869 62.464h-298.667c-23.552 0-42.667-19.115-42.667-42.667s19.115-42.667 42.667-42.667z" />
<glyph unicode="&#xe96e;" glyph-name="corner-right-up" d="M170.667 42.667h298.667c58.88 0 112.299 23.936 150.869 62.464s62.464 91.989 62.464 150.869v409.003l140.501-140.501c16.683-16.683 43.691-16.683 60.331 0s16.683 43.691 0 60.331l-213.333 213.333c-3.925 3.925-8.619 7.083-13.824 9.259-15.445 6.4-33.92 3.328-46.507-9.259l-213.333-213.333c-16.683-16.683-16.683-43.691 0-60.331s43.691-16.683 60.331 0l140.501 140.501v-409.003c0-35.371-14.293-67.285-37.504-90.496s-55.125-37.504-90.496-37.504h-298.667c-23.552 0-42.667-19.115-42.667-42.667s19.115-42.667 42.667-42.667z" />
<glyph unicode="&#xe96f;" glyph-name="corner-up-left" d="M896 85.334v298.667c0 58.88-23.936 112.299-62.464 150.869s-91.989 62.464-150.869 62.464h-409.003l140.501 140.501c16.683 16.683 16.683 43.691 0 60.331s-43.691 16.683-60.331 0l-213.333-213.333c-4.096-4.096-7.168-8.789-9.259-13.824s-3.243-10.539-3.243-16.341 1.152-11.307 3.243-16.341c2.091-5.035 5.163-9.728 9.259-13.824l213.333-213.333c16.683-16.683 43.691-16.683 60.331 0s16.683 43.691 0 60.331l-140.501 140.501h409.003c35.371 0 67.285-14.293 90.496-37.504s37.504-55.125 37.504-90.496v-298.667c0-23.552 19.115-42.667 42.667-42.667s42.667 19.115 42.667 42.667z" />
<glyph unicode="&#xe970;" glyph-name="corner-up-right" d="M213.333 85.334v298.667c0 35.371 14.293 67.285 37.504 90.496s55.125 37.504 90.496 37.504h409.003l-140.501-140.501c-16.683-16.683-16.683-43.691 0-60.331s43.691-16.683 60.331 0l213.333 213.333c3.925 3.925 7.083 8.619 9.259 13.824 4.309 10.453 4.309 22.229 0 32.683-2.091 5.035-5.163 9.728-9.259 13.824l-213.333 213.333c-16.683 16.683-43.691 16.683-60.331 0s-16.683-43.691 0-60.331l140.501-140.501h-409.003c-58.88 0-112.299-23.936-150.869-62.464s-62.464-91.989-62.464-150.869v-298.667c0-23.552 19.115-42.667 42.667-42.667s42.667 19.115 42.667 42.667z" />
<glyph unicode="&#xe971;" glyph-name="cpu" d="M256 725.334h512c11.776 0 22.4-4.736 30.165-12.501s12.501-18.389 12.501-30.165v-512c0-11.776-4.736-22.4-12.501-30.165s-18.389-12.501-30.165-12.501h-512c-11.776 0-22.4 4.736-30.165 12.501s-12.501 18.389-12.501 30.165v512c0 11.776 4.736 22.4 12.501 30.165s18.389 12.501 30.165 12.501zM384 597.334c-23.552 0-42.667-19.115-42.667-42.667v-256c0-23.552 19.115-42.667 42.667-42.667h256c23.552 0 42.667 19.115 42.667 42.667v256c0 23.552-19.115 42.667-42.667 42.667zM426.667 512h170.667v-170.667h-170.667zM42.667 298.667h85.333v-128c0-35.328 14.379-67.413 37.504-90.496s55.168-37.504 90.496-37.504h85.333v-85.333c0-23.552 19.115-42.667 42.667-42.667s42.667 19.115 42.667 42.667v85.333h170.667v-85.333c0-23.552 19.115-42.667 42.667-42.667s42.667 19.115 42.667 42.667v85.333h85.333c35.328 0 67.413 14.379 90.496 37.504s37.504 55.168 37.504 90.496v128h85.333c23.552 0 42.667 19.115 42.667 42.667s-19.115 42.667-42.667 42.667h-85.333v128h85.333c23.552 0 42.667 19.115 42.667 42.667s-19.115 42.667-42.667 42.667h-85.333v85.333c0 35.328-14.379 67.413-37.504 90.496s-55.168 37.504-90.496 37.504h-85.333v85.333c0 23.552-19.115 42.667-42.667 42.667s-42.667-19.115-42.667-42.667v-85.333h-170.667v85.333c0 23.552-19.115 42.667-42.667 42.667s-42.667-19.115-42.667-42.667v-85.333h-85.333c-35.328 0-67.413-14.379-90.496-37.504s-37.504-55.168-37.504-90.496v-85.333h-85.333c-23.552 0-42.667-19.115-42.667-42.667s19.115-42.667 42.667-42.667h85.333v-128h-85.333c-23.552 0-42.667-19.115-42.667-42.667s19.115-42.667 42.667-42.667z" />
<glyph unicode="&#xe972;" glyph-name="credit-card" d="M128 810.667c-35.328 0-67.413-14.379-90.496-37.504s-37.504-55.168-37.504-90.496v-512c0-35.328 14.379-67.413 37.504-90.496s55.168-37.504 90.496-37.504h768c35.328 0 67.413 14.379 90.496 37.504s37.504 55.168 37.504 90.496v512c0 35.328-14.379 67.413-37.504 90.496s-55.168 37.504-90.496 37.504zM938.667 554.667h-853.333v128c0 11.776 4.736 22.4 12.501 30.165s18.389 12.501 30.165 12.501h768c11.776 0 22.4-4.736 30.165-12.501s12.501-18.389 12.501-30.165zM85.333 469.334h853.333v-298.667c0-11.776-4.736-22.4-12.501-30.165s-18.389-12.501-30.165-12.501h-768c-11.776 0-22.4 4.736-30.165 12.501s-12.501 18.389-12.501 30.165z" />
<glyph unicode="&#xe973;" glyph-name="crop" d="M301.952 636.715l381.099 3.285c11.435 0 22.016-4.736 29.781-12.501s12.501-18.389 12.501-30.165v-384h-384c-11.776 0-22.4 4.736-30.165 12.501s-12.501 18.389-12.501 29.781zM43.051 634.454l173.568 1.493-3.285-379.563c0-35.712 14.379-67.755 37.504-90.88s55.168-37.504 90.496-37.504h384v-170.667c0-23.552 19.115-42.667 42.667-42.667s42.667 19.115 42.667 42.667v170.667h170.667c23.552 0 42.667 19.115 42.667 42.667s-19.115 42.667-42.667 42.667h-170.667v384c0 35.328-14.379 67.413-37.504 90.496s-55.168 37.504-90.88 37.504l-379.563-3.285 1.493 173.568c0.213 23.595-18.731 42.837-42.283 43.051s-42.837-18.731-43.051-42.283l-1.536-175.061-175.061-1.536c-23.552-0.213-42.496-19.456-42.283-43.051s19.456-42.496 43.051-42.283z" />
<glyph unicode="&#xe974;" glyph-name="crosshair" d="M981.333 426.667c0 129.579-52.565 246.997-137.472 331.861s-202.283 137.472-331.861 137.472-246.997-52.565-331.861-137.472-137.472-202.283-137.472-331.861 52.565-246.997 137.472-331.861 202.283-137.472 331.861-137.472 246.997 52.565 331.861 137.472 137.472 202.283 137.472 331.861zM554.667 45.014v125.653c0 23.552-19.115 42.667-42.667 42.667s-42.667-19.115-42.667-42.667v-125.653c-89.003 9.813-168.789 50.048-228.864 110.123s-100.309 139.861-110.123 228.864h125.653c23.552 0 42.667 19.115 42.667 42.667s-19.115 42.667-42.667 42.667h-125.653c9.813 89.003 50.048 168.789 110.123 228.864s139.861 100.309 228.864 110.123v-125.653c0-23.552 19.115-42.667 42.667-42.667s42.667 19.115 42.667 42.667v125.653c89.003-9.813 168.789-50.048 228.864-110.123s100.309-139.861 110.123-228.864h-125.653c-23.552 0-42.667-19.115-42.667-42.667s19.115-42.667 42.667-42.667h125.653c-9.813-89.003-50.048-168.789-110.123-228.864s-139.861-100.309-228.864-110.123z" />
</font>
</defs>
</svg>
